<?xml version="1.0" standalone="no"?>
<!DOCTYPE svg PUBLIC "-//W3C//DTD SVG 1.1//EN" "http://www.w3.org/Graphics/SVG/1.1/DTD/svg11.dtd" >
<!--
2013-9-30: Created.
-->
<svg>
<metadata>
Created by iconfont
</metadata>
<defs>

<font id="iconfont" horiz-adv-x="1024" >
  <font-face
    font-family="iconfont"
    font-weight="500"
    font-stretch="normal"
    units-per-em="1024"
    ascent="896"
    descent="-128"
  />
    <missing-glyph />
    
    <glyph glyph-name="logout" unicode="&#59448;" d="M733.726 248.234 778.98 202.98 960 384 778.98 565.02 733.724 519.764 837.49 416 384 416 384 352 837.49 352ZM782.982 112.468C710.458 39.942 614.036 0 511.472 0c-102.574 0-199.012 39.942-271.544 112.47C167.394 184.998 128 281.43 128 384c0 102.562 39.394 198.99 111.93 271.522C312.464 728.054 408.9 768 511.472 768c102.558 0 198.982-39.946 271.51-112.476 5.054-5.056 9.932-10.242 14.666-15.524l81.462 0c-80.948 116.056-215.418 192-367.638 192C264.042 832 64 631.404 64 384c0-247.43 200.042-448 447.472-448 152.224 0 286.7 75.94 367.644 192l-81.46 0C792.92 122.714 788.042 117.528 782.982 112.468z"  horiz-adv-x="1024" />

    
    <glyph glyph-name="facebook" unicode="&#58949;" d="M928 896H96C43.2 896 0 852.8 0 800v-832c0-52.8 43.2-96 96-96h416V320h-128v128h128v64c0 105.8 86.2 192 192 192h128v-128h-128c-35.2 0-64-28.8-64-64v-64h192l-32-128h-160v-448h288c52.8 0 96 43.2 96 96V800c0 52.8-43.2 96-96 96z"  horiz-adv-x="1024" />

    
    <glyph glyph-name="icons-google_groups" unicode="&#60935;" d="M85.333333 810.666667v-640h597.333334l256-213.333334V810.666667z m405.333334-170.666667a64 64 0 1 0 0-128 64 64 0 0 0 0 128zM298.666667 341.333333H213.333333c0 47.018667 38.314667 85.333333 85.333334 85.333334 7.68 0 15.018667-1.322667 22.016-3.157334A168.106667 168.106667 0 0 1 298.666667 341.333333z m0 128c-23.466667 0-42.666667 19.2-42.666667 42.666667s19.2 42.666667 42.666667 42.666667 42.666667-19.2 42.666666-42.666667-19.2-42.666667-42.666666-42.666667z m42.666666-128c0 70.314667 57.685333 128 128 128h42.666667c70.314667 0 128-57.685333 128-128z m298.666667 170.666667c0 23.466667 19.2 42.666667 42.666667 42.666667s42.666667-19.2 42.666666-42.666667-19.2-42.666667-42.666666-42.666667-42.666667 19.2-42.666667 42.666667z m42.666667-170.666667c0 29.866667-8.32 57.685333-22.016 82.176A86.613333 86.613333 0 0 0 682.666667 426.666667c47.018667 0 85.333333-38.314667 85.333333-85.333334z"  horiz-adv-x="1024" />

    
    <glyph glyph-name="youtube" unicode="&#59187;" d="M1099.31 647.834c-12.562 47.3-49.574 84.552-96.568 97.194C917.562 768 576 768 576 768S234.44 768 149.258 745.028c-46.994-12.644-84.006-49.894-96.568-97.194-22.824-85.734-22.824-264.61-22.824-264.61s0-178.876 22.824-264.61c12.562-47.3 49.574-83 96.568-95.642C234.44 0 576 0 576 0s341.56 0 426.742 22.972c46.994 12.642 84.006 48.342 96.568 95.642 22.824 85.734 22.824 264.61 22.824 264.61s0 178.876-22.824 264.61z m-635.02-427.016V545.63l285.478-162.41-285.478-162.402z"  horiz-adv-x="1152" />

    
    <glyph glyph-name="tiaoshi" unicode="&#60257;" d="M544 507.488V800a32 32 0 0 1-64 0v-292.512c-55.104-14.272-96-63.904-96-123.488s40.896-109.216 96-123.488v-291.616c0-18.176 14.336-32.896 32-32.896s32 14.72 32 32.928v291.616c55.104 14.272 96 63.904 96 123.488s-40.896 109.184-96 123.456zM223.136 187.744C223.328 189.184 224 190.496 224 192V800a32 32 0 0 1-64 0v-608c0-1.504 0.672-2.816 0.864-4.256A127.744 127.744 0 0 1 64 64a128 128 0 0 1 256 0 127.744 127.744 0 0 1-96.864 123.744zM192 0a64 64 0 1 0 0.032 128.032A64 64 0 0 0 192 0zM960 704a128 128 0 0 1-256 0 127.744 127.744 0 0 1 96.864-123.744c-0.192-1.44-0.864-2.752-0.864-4.256v-608a32 32 0 0 1 64 0V576c0 1.504-0.672 2.816-0.864 4.256A127.744 127.744 0 0 1 960 704z m-128-64a64 64 0 1 0 0.032 128.032A64 64 0 0 0 832 640z"  horiz-adv-x="1024" />

    
    <glyph glyph-name="changjingguanli" unicode="&#60258;" d="M592 560h-416c-52.928 0-96-43.072-96-96v-416c0-52.928 43.072-96 96-96h416c52.928 0 96 43.072 96 96v416c0 52.928-43.072 96-96 96z m32-512a32 32 0 0 0-32-32h-416c-17.632 0-32 14.336-32 32v416c0 17.632 14.368 32 32 32h416c17.664 0 32-14.368 32-32v-416zM720 688h-416a32 32 0 0 1 0-64h416c17.664 0 32-14.368 32-32v-416a32 32 0 1 1 64 0v416c0 52.928-43.072 96-96 96zM528 144h-288a32 32 0 1 1 0-64h288a32 32 0 1 1 0 64zM848 816h-416a32 32 0 0 1 0-64h416c17.664 0 32-14.368 32-32v-416a32 32 0 1 1 64 0v416c0 52.928-43.072 96-96 96z"  horiz-adv-x="1024" />

    
    <glyph glyph-name="bianji" unicode="&#60259;" d="M880.288 663.52L560.192 850.88a95.648 95.648 0 0 1-96.64 0L143.68 663.52A96.64 96.64 0 0 1 96 580.096v-397.664c0-34.784 18.624-66.88 48.736-84l320-181.92a95.52 95.52 0 0 1 94.496 0l320 181.92A96.576 96.576 0 0 1 928 182.432V580.096a96.64 96.64 0 0 1-47.712 83.424zM864 182.432c0-11.584-6.208-22.304-16.256-28l-320-181.92a31.776 31.776 0 0 0-31.488 0l-320 181.92A32.192 32.192 0 0 0 160 182.432V580.096c0 11.456 6.048 22.048 15.904 27.808l319.872 187.36a31.84 31.84 0 0 0 32.192 0l320.128-187.392c9.856-5.728 15.904-16.32 15.904-27.776v-397.664zM512 576a192 192 0 1 1 0-384 192 192 0 0 1 0 384z m0-320a128 128 0 1 0 0 256 128 128 0 0 0 0-256z"  horiz-adv-x="1024" />

    
    <glyph glyph-name="guanlianshebei" unicode="&#60260;" d="M260.096 352H160a32 32 0 0 0-32 32V640h480v-256a32 32 0 0 0-32-32h-54.976a32 32 0 0 1 0-64H576a96 96 0 0 1 96 96V736a96 96 0 0 1-96 96H160a96 96 0 0 1-96-96v-352a96 96 0 0 1 96-96h100.096a32 32 0 0 1 0 64zM128 736a32 32 0 0 0 32 32h416a32 32 0 0 0 32-32v-32H128V736zM864 480h-90.88a32 32 0 0 1 0-64H864a32 32 0 0 0 32-32v-256H416v256a32 32 0 0 0 32 32h63.072a32 32 0 0 1 0 64H448a96 96 0 0 1-96-96v-352a96 96 0 0 1 96-96h416a96 96 0 0 1 96 96V384a96 96 0 0 1-96 96z m32-448a32 32 0 0 0-32-32H448a32 32 0 0 0-32 32v32h480v-32z"  horiz-adv-x="1024" />

    
    <glyph glyph-name="guanfangbanben" unicode="&#60261;" d="M782.208 365.28L724.288 448l57.92 82.72a32 32 0 0 1-20.672 49.856l-99.456 17.536-17.536 99.456a32 32 0 0 1-49.856 20.672L512 660.288l-82.72 57.92a32 32 0 0 1-49.856-20.672l-17.536-99.456-99.456-17.504a32 32 0 0 1-20.672-49.856L299.712 448l-57.92-82.72a32 32 0 0 1 20.672-49.856l99.456-17.536 17.536-99.456a32 32 0 0 1 49.856-20.672L512 235.712l82.72-57.92a32 32 0 0 1 49.856 20.672l17.536 99.456 99.456 17.536a31.968 31.968 0 0 1 20.64 49.824z m-123.2 64.352l41.952-59.904-72.032-12.704a32 32 0 0 1-25.952-25.952l-12.704-72.032-59.904 41.952a32 32 0 0 1-36.704 0l-59.904-41.952-12.704 72.032a32 32 0 0 1-25.952 25.952l-72.032 12.704 41.952 59.904a32 32 0 0 1 0 36.704l-41.952 59.904 72.032 12.704a32 32 0 0 1 25.952 25.952l12.704 72.032 59.904-41.952a32 32 0 0 1 36.704 0l59.904 41.952 12.704-72.032a32 32 0 0 1 25.952-25.952l72.032-12.704-41.952-59.904a32 32 0 0 1 0-36.704zM512 861.088c-243.008 0-440-196.992-440-440a438.72 438.72 0 0 1 133.344-315.552 32 32 0 1 1 44.608 45.888 374.752 374.752 0 0 0-113.952 269.664c0 207.648 168.352 376 376 376s376-168.352 376-376c0-99.136-38.496-192.096-106.144-261.824a32 32 0 1 1 45.92-44.576 438.56 438.56 0 0 1 124.224 306.4c0 243.008-196.992 440-440 440zM704 134.912a32 32 0 0 1-32-32v-107.104l-142.24 94.848-0.064 0.032a32 32 0 0 1-11.552 4.736c-2.048 0.416-4.096 0.032-6.144 0.032s-4.096 0.352-6.144-0.032c-4.096-0.8-8-2.4-11.552-4.736l-0.064-0.032L352-4.224V96a32 32 0 0 1-64 0v-160c0-0.992 0.48-1.856 0.576-2.848a32.256 32.256 0 0 1 3.712-12.224c0.48-0.864 0.544-1.856 1.088-2.688 0.576-0.896 1.504-1.344 2.176-2.144a31.36 31.36 0 0 1 21.472-11.488c1.024-0.096 1.92-0.608 2.976-0.608 0.992 0 1.856 0.48 2.848 0.576a32.256 32.256 0 0 1 12.256 3.712c0.864 0.48 1.856 0.544 2.688 1.088L512 25.536l174.24-116.16c14.688-9.792 34.56-5.824 44.384 8.864a31.584 31.584 0 0 1 4.768 21.664c0.096 1.056 0.608 1.952 0.608 3.04v159.968a32 32 0 0 1-32 32z"  horiz-adv-x="1024" />

    
    <glyph glyph-name="gongnengdingyi" unicode="&#60262;" d="M418.496 250.656l-159.456 90.752a32 32 0 0 1-31.68-55.616l159.456-90.752a32 32 0 0 1 31.68 55.616zM790.208 516.192a32 32 0 0 1-31.616 55.648L508.8 429.664l-249.76 142.144a32 32 0 0 1-31.68-55.616l253.344-144.16V64a32 32 0 1 1 64 0v309.312c0 0.992-0.48 1.856-0.576 2.848l246.08 140.032zM880.288 663.52L560.192 850.88a95.648 95.648 0 0 1-96.64 0L143.68 663.52A96.64 96.64 0 0 1 96 580.096v-397.664c0-34.784 18.624-66.88 48.736-84l320-181.92a95.52 95.52 0 0 1 94.496 0l320 181.92A96.576 96.576 0 0 1 928 182.432V580.096a96.64 96.64 0 0 1-47.712 83.424zM864 182.432c0-11.584-6.208-22.304-16.256-28l-320-181.92a31.776 31.776 0 0 0-31.488 0l-320 181.92A32.192 32.192 0 0 0 160 182.432V580.096c0 11.456 6.048 22.048 15.904 27.808l319.872 187.36a31.84 31.84 0 0 0 32.192 0l320.128-187.392c9.856-5.728 15.904-16.32 15.904-27.776v-397.664zM778.656 442.048l-149.344-88.128c-20.608-12.16-37.344-38.944-37.344-59.808v-176.416c0-20.864 16.704-27.904 37.344-15.744l149.344 88.128c20.608 12.16 37.344 38.944 37.344 59.808v176.416c0 20.864-16.704 27.904-37.344 15.744z"  horiz-adv-x="1024" />

    
    <glyph glyph-name="jichuguanli" unicode="&#60263;" d="M941.44 30.528a447.808 447.808 0 0 1-397.44 320V544h128a32 32 0 0 1 32 32V704a32 32 0 0 1-32 32H352a32 32 0 0 1-32-32v-128a32 32 0 0 1 32-32h128v-193.472a447.84 447.84 0 0 1-397.504-320A64 64 0 1 1 160-32c0 16.48-6.4 31.36-16.64 42.688A384 384 0 0 0 480 286.496v-263.392c-19.04-11.072-32-31.488-32-55.136a64 64 0 0 1 128 0c0 23.616-12.96 44.032-32 55.136v263.392a383.936 383.936 0 0 0 336.608-275.872A63.36 63.36 0 0 1 864-32a64 64 0 0 1 128 0 64 64 0 0 1-50.56 62.528zM288 416h77.472a32 32 0 0 1 0 64H288a32 32 0 0 0-32 32V768a32 32 0 0 0 32 32h448a32 32 0 0 0 32-32v-256a32 32 0 0 0-32-32h-90.624a32 32 0 0 1 0-64H736a96 96 0 0 1 96 96V768a96 96 0 0 1-96 96H288a96 96 0 0 1-96-96v-256a96 96 0 0 1 96-96z"  horiz-adv-x="1024" />

    
    <glyph glyph-name="jishufuwu" unicode="&#60264;" d="M435.2 569.6a32 32 0 0 1-44.8-6.4l-96-128a31.968 31.968 0 0 1 0-38.4l96-128a32 32 0 0 1 51.2 38.4L360 416l81.6 108.8a32 32 0 0 1-6.4 44.8zM748.8 262.4a32 32 0 0 1 44.8 6.4l96 128a31.968 31.968 0 0 1 0 38.4l-96 128a32 32 0 0 1-51.2-38.4l81.6-108.8-81.6-108.8a32 32 0 0 1 6.4-44.8zM592.768 582.944l-64-288a32 32 0 1 1 62.464-13.888l64 288a32 32 0 1 1-62.464 13.888zM864 259.616a32 32 0 0 1-32-32V160h-96a96 96 0 0 1-96-96v-96H227.04C207.712-32 192-15.424 192 4.928V763.072C192 783.424 207.712 800 227.04 800h569.888C816.288 800 832 783.424 832 763.072v-124.448a32 32 0 1 1 64 0V763.072C896 818.72 851.552 864 796.928 864H227.04C172.448 864 128 818.72 128 763.072v-758.144C128-50.72 172.448-96 227.04-96h435.008c1.568 0 2.912 0.672 4.416 0.896 8.96-1.6 18.464 0.256 25.984 6.528l192 160a32 32 0 0 1 10.144 33.888c0.544 2.272 1.408 4.416 1.408 6.848v115.456a32 32 0 0 1-32 32zM736 96h78.016L704 4.32V64a32 32 0 0 0 32 32z"  horiz-adv-x="1024" />

    
    <glyph glyph-name="hezuohuobanmiyueguanli" unicode="&#60265;" d="M928 352h-96v64h96a32 32 0 0 1 0 64h-128a32 32 0 0 1-32-32v-227.84A143.872 143.872 0 0 1 800-64a144 144 0 0 1 144 144 143.904 143.904 0 0 1-112 140.16V288h96a32 32 0 0 1 0 64z m-48-272a80 80 0 1 0-160 0 80 80 0 0 0 160 0zM572.608 9.248l-0.864-0.288c-198.752-14.464-419.68 2.464-466.592 26.912 11.264 30.208 82.88 74.784 222.88 90.144a32 32 0 0 1 28.512 31.808v38.048c0 10.848-5.504 20.96-14.624 26.88-51.2 33.088-96.128 87.552-123.264 149.376a32.256 32.256 0 0 1-15.04 15.808c-8.672 4.32-21.728 19.904-34.656 69.696-4.96 19.072-1.568 32.768 10.624 43.04 6.816 5.76 10.912 14.08 11.328 23.008C197.76 676.672 283.2 768 419.392 768c133.472 0 215.104-86.528 223.936-237.376 0.608-10.144 5.984-19.392 14.464-24.928 12.992-8.48 16.896-20.608 12.384-38.144-12.544-48.288-25.024-58.464-29.856-60.576a31.968 31.968 0 0 1-17.056-18.176c-24.992-67.808-72.352-129.728-126.656-165.664a32 32 0 0 1-14.336-26.688v-38.592a32 32 0 0 1 28.512-31.808c11.296-1.216 28.96-3.968 53.056-8.16 17.376-2.912 33.984 8.672 36.992 26.048s-8.672 33.984-26.048 36.992a1699.968 1699.968 0 0 1-22.112 3.712c54.08 42.016 99.136 102.816 126.464 171.04 30.112 20.96 44.096 61.472 52.992 95.776 9.888 38.08 0.192 73.408-25.984 97.472C690.56 723.968 581.76 832 419.392 832c-168 0-278.848-111.776-291.712-292.672-22.816-25.6-30.368-60.448-20.672-97.728 13.984-53.856 31.904-86.784 57.28-104.512 28.224-60.224 71.04-114.144 120.48-152.192-150.176-23.328-245.216-83.328-245.216-157.088 0-9.088 2.816-22.56 16.192-35.008 43.2-40.064 211.488-52.864 360.32-52.864 61.408 0 119.52 2.176 164.128 5.536 2.496 0.192 4.96 0.672 7.36 1.44l4.512 1.44a32 32 0 0 1 20.704 40.224 31.776 31.776 0 0 1-40.16 20.672z"  horiz-adv-x="1024" />

    
    <glyph glyph-name="ceshishenqing" unicode="&#60266;" d="M607.232 0a32 32 0 1 0 0-64H192a96 96 0 0 0-96 96V736a96 96 0 0 0 96 96h544a96 96 0 0 0 96-96 32 32 0 0 0-64 0 32 32 0 0 1-32 32H192a32 32 0 0 1-32-32v-704a32 32 0 0 1 32-32h415.232zM832 310.24v-146.656c0-42.656-64-42.656-64 0v146.656c0 42.688 64 42.688 64 0zM288 576a32 32 0 1 0 0 64h224a32 32 0 0 0 0-64H288zM288 416a32 32 0 0 0 0 64h128a32 32 0 0 0 0-64H288zM639.424-30.592a32 32 0 1 0-64 0L576 96a96 96 0 0 0 96 96l127.744-1.152a32 32 0 1 0 0-64L672 128a32 32 0 0 1-32-32l-0.576-126.592zM637.92-51.648a32 32 0 1 0-44.32 46.208l180.384 172.992a32 32 0 1 0 44.288-46.176l-180.352-173.024zM880.896 561.472a31.424 31.424 0 0 1 3.328 44.416l-0.416 0.512a32 32 0 0 1-44.896 3.36L408.32 243.712l-15.2-51.84 58.336 4.544 429.44 365.056z m51.616 86.4a95.36 95.36 0 0 0-9.408-134.496l-438.08-372.448a32 32 0 0 0-18.24-7.52l-114.944-8.896a32 32 0 0 0-33.184 40.928l30.944 105.472a32 32 0 0 0 9.984 15.36L797.408 658.496a96 96 0 0 0 134.688-10.112l0.416-0.512z"  horiz-adv-x="1024" />

    
    <glyph glyph-name="jiedianguanli" unicode="&#60267;" d="M512 384m-192 0a192 192 0 1 1 384 0 192 192 0 1 1-384 0ZM960 384c0 53.6-9.408 105.92-27.616 155.2a32 32 0 0 1-60.032-22.144c15.584-42.24 23.648-87.072 23.648-133.056 0-22.048-2.272-43.552-5.856-64.576A63.808 63.808 0 0 1 832 256c0-18.88 8.32-35.68 21.344-47.392C789.6 84.832 660.832 0 512 0 299.936 0 128 171.936 128 384c0 22.048 2.272 43.552 5.856 64.576A63.808 63.808 0 0 1 192 512c0 18.88-8.32 35.68-21.344 47.392C234.4 683.168 363.168 768 512 768c33.312 0 65.824-4.736 97.312-12.96A64.064 64.064 0 0 1 736 768a64 64 0 0 1-64 64c-16.256 0-30.944-6.272-42.24-16.256A448.864 448.864 0 0 1 512 832C331.712 832 176.736 725.28 105.664 571.776A63.872 63.872 0 0 1 64 512c0-12.576 3.744-24.224 10.016-34.112A449.344 449.344 0 0 1 64 384c0-247.424 200.576-448 448-448 180.288 0 335.264 106.72 406.336 260.224A63.872 63.872 0 0 1 960 256c0 12.576-3.744 24.224-10.016 34.112 6.464 30.304 10.016 61.664 10.016 93.888z"  horiz-adv-x="1024" />

    
    <glyph glyph-name="jinggao" unicode="&#60268;" d="M512 864C246.912 864 32 649.088 32 384c0-265.088 214.912-480 480-480 265.088 0 480 214.912 480 480 0 265.088-214.912 480-480 480z m0-896C282.24-32 96 154.24 96 384S282.24 800 512 800s416-186.24 416-416-186.24-416-416-416zM512 512a32 32 0 0 1-32-32v-352a32 32 0 0 1 64 0V480a32 32 0 0 1-32 32zM512 624m-48 0a48 48 0 1 1 96 0 48 48 0 1 1-96 0Z"  horiz-adv-x="1024" />

    
    <glyph glyph-name="peiwangyindao" unicode="&#60269;" d="M224 139.072h224a32 32 0 0 0 31.52-26.432c3.168-18.304 18.272-26.944 32.992-26.304 14.144-0.64 28.672 7.392 32.672 24.512 3.968 16.992 16.928 28.224 30.816 28.224h224a96 96 0 0 1 96 96V672a96 96 0 0 1-96 96h-224c-24.448 0-46.24-9.952-63.008-25.728A95.36 95.36 0 0 1 448 768H224a96 96 0 0 1-96-96v-436.928a96 96 0 0 1 96-96zM576 704h224a32 32 0 0 0 32-32v-436.928a32 32 0 0 0-32-32h-224c-11.2 0-21.984-2.048-32-5.824V665.376C544 687.36 559.072 704 576 704zM192 672a32 32 0 0 0 32 32h224a32 32 0 0 0 32-32v-474.432a95.872 95.872 0 0 1-32 5.472H224a32 32 0 0 0-32 32V672zM957.984 608a32 32 0 0 1-32-32v-448a32 32 0 0 0-32-32h-224a96.096 96.096 0 0 1-83.168-48h-151.648A96.096 96.096 0 0 1 352 96H128a32 32 0 0 0-32 32V576a32 32 0 0 1-64 0v-448a96 96 0 0 1 96-96h224c14.688 0 27.392-9.984 31.008-23.968a32 32 0 0 1 31.008-24.032H608c14.592 0 27.36 9.888 31.008 24.032a32 32 0 0 0 30.976 23.968h224a96 96 0 0 1 96 96V576a32 32 0 0 1-32 32zM272 560h113.152a32 32 0 0 1 0 64H272a32 32 0 0 1 0-64zM272 432h113.152a32 32 0 0 1 0 64H272a32 32 0 0 1 0-64z"  horiz-adv-x="1024" />

    
    <glyph glyph-name="renjijiaohu" unicode="&#60270;" d="M948.448 360.512c-25.856 119.584-111.008 238.24-182.272 217.632-25.504-7.36-45.088-20.832-57.728-39.424-22.976 10.656-46.496 11.68-69.504 1.536a86.112 86.112 0 0 1-40.256-35.52c-26.496 13.408-56.96 13.12-88.896-1.856a107.2 107.2 0 0 1-19.232-11.456c-77.824 109.984-141.408 159.616-198.72 146.624-81.152-18.368-81.152-89.152-19.584-181.856l118.208-182.784c-64.864 12.192-111.776 1.728-139.584-35.424-45.472-60.8 2.656-116.96 114.4-167.232l215.968-96.064a32 32 0 0 1 26.016 58.464l-215.84 96c-43.552 19.584-72.32 37.952-85.568 53.44-7.68 8.96-7.904 11.456-3.712 17.056 15.808 21.12 64.928 21.12 150.56-10.816 28.864-10.784 54.784 21.472 38.048 47.36l-164.96 255.072C284.8 552.992 284.8 570.816 305.984 575.616c28.064 6.336 87.104-49.408 165.536-170.56 5.888-13.888 15.072-28.352 27.392-42.976 25.472-30.272 72.416 3.552 51.776 37.312a2035.2 2035.2 0 0 1-23.04 36.832c0.544 3.744 3.872 6.144 9.312 8.704 22.464 10.528 36.48 6.528 52.192-15.68 17.472-24.64 56.224-13.6 58.048 16.576 1.28 21.184 7.136 31.296 17.536 35.872 8.96 3.936 20.096 0.544 37.472-16a32 32 0 0 1 53.952 20.32c1.472 16.544 9.024 25.248 27.808 30.688 19.712 5.696 83.136-82.688 101.952-169.696 13.536-62.592 13.536-136.992-0.32-223.136a32 32 0 1 1 63.2-10.144c15.008 93.504 15.008 175.776-0.352 246.784zM300.8 0H164.256C144.352 0 128 16.608 128 37.344V730.656C128 751.392 144.352 768 164.256 768h375.456C559.648 768 576 751.392 576 730.656a32 32 0 0 1 64 0C640 786.528 595.232 832 539.744 832H164.256C108.768 832 64 786.528 64 730.656v-693.344C64-18.528 108.768-64 164.256-64H300.8a32 32 0 0 1 0 64z"  horiz-adv-x="1024" />

    
    <glyph glyph-name="shiyongwendang" unicode="&#60271;" d="M288 576h448a32 32 0 0 1 0 64H288a32 32 0 0 1 0-64zM288 352h448a32 32 0 0 1 0 64H288a32 32 0 0 1 0-64zM544 192H288a32 32 0 0 1 0-64h256a32 32 0 0 1 0 64zM896 763.072C896 818.72 851.552 864 796.928 864H227.04C172.448 864 128 818.72 128 763.072v-758.144C128-50.72 172.448-96 227.04-96h435.008c1.568 0 2.912 0.672 4.416 0.896 8.96-1.6 18.464 0.256 25.984 6.528l192 160a31.424 31.424 0 0 1 10.816 27.2c0.16 1.184 0.736 2.208 0.736 3.424V763.072zM192 4.928V763.072C192 783.424 207.712 800 227.04 800h569.888C816.288 800 832 783.424 832 763.072V160h-96a96 96 0 0 1-96-96v-96H227.04C207.712-32 192-15.424 192 4.928zM814.016 96L704 4.32V64a32 32 0 0 0 32 32h78.016z"  horiz-adv-x="1024" />

    
    <glyph glyph-name="quanxianshenpi" unicode="&#60272;" d="M509.088 307.008v23.872c35.936 22.816 70.656 62.88 89.536 112.064 13.408 5.696 23.04 21.824 30.816 50.56 6.016 22.304-3.648 36.992-16.672 45.12C606.368 643.616 543.808 704 448 704c-97.184 0-162.688-62.144-167.744-169.92-11.808-9.568-19.392-24.864-13.472-46.688 8.416-31.136 18.752-48.992 33.056-55.84 20.224-44.192 53.248-80.032 87.072-101.024v-23.52C292.896 297.088 224 264.864 224 226.624c0-46.144 448-46.144 448 0 0 38.24-68.896 70.464-162.912 80.384zM864 128V736a96 96 0 0 1-96 96H160a96 96 0 0 1-96-96v-608a96 96 0 0 1 96-96h608a96 96 0 0 1 96 96zM128 128V736a32 32 0 0 0 32 32h608a32 32 0 0 0 32-32v-608a32 32 0 0 0-32-32H160a32 32 0 0 0-32 32zM944.896 730.144a32 32 0 0 1-32-32v-679.104c0-19.84-16.064-35.904-35.904-35.904h-611.2a32 32 0 0 1 0-64h611.2a99.904 99.904 0 0 1 99.904 99.904V698.144a32 32 0 0 1-32 32z"  horiz-adv-x="1024" />

    
    <glyph glyph-name="yishouquan" unicode="&#60273;" d="M864 320h-250.144A204.288 204.288 0 0 0 608 365.984c0 77.088 43.2 146.56 110.752 181.632a31.104 31.104 0 0 1 11.584 11.072C771.52 579.936 800 622.432 800 672a128 128 0 0 1-128 128H352a128 128 0 0 1-128-128c0-49.568 28.48-92.064 69.664-113.312a31.104 31.104 0 0 1 11.584-11.072A204.544 204.544 0 0 0 416 365.984c0-15.712-2.4-30.976-5.888-45.984H160a96 96 0 0 1-96-96v-64a96 96 0 0 1 96-96c0-54.272 49.088-96 107.296-96h489.408C814.912-32 864 9.728 864 64a96 96 0 0 1 96 96v64a96 96 0 0 1-96 96z m-452.384 224h37.024a32 32 0 0 1 0 64H352a64 64 0 0 0 0 128h320a64 64 0 0 0 0-128h-102.112a32 32 0 0 1 0-64h42.496a267.04 267.04 0 0 1-64.416-224h-71.936a267.04 267.04 0 0 1-64.416 224zM896 160a32 32 0 0 0-32-32h-55.712a32 32 0 0 1-32-32c0-14.72 10.144-26.592 23.712-30.336V64c0-16.416-18.336-32-43.296-32H267.296C242.336 32 224 47.584 224 64h456.128a32 32 0 0 1 0 64H160a32 32 0 0 0-32 32v64a32 32 0 0 0 32 32h704a32 32 0 0 0 32-32v-64z"  horiz-adv-x="1024" />

    
    <glyph glyph-name="tianshenpi" unicode="&#60274;" d="M575.232 0H160a32 32 0 0 0-32 32V736a32 32 0 0 0 32 32h544c17.664 0 32-14.336 32-32a32 32 0 0 1 64 0 96 96 0 0 1-96 96H160a96 96 0 0 1-96-96v-704a96 96 0 0 1 96-96h415.232a32 32 0 0 1 0 64zM512 608a32 32 0 0 1-32 32H224a32 32 0 0 1 0-64h256a32 32 0 0 1 32 32zM480 416a32 32 0 0 1-32 32H224a32 32 0 0 1 0-64h224a32 32 0 0 1 32 32zM224 224a32 32 0 0 1 0-64h128a32 32 0 0 1 0 64H224zM864 272h-66.176C822.08 339.712 864 464.352 864 480a160 160 0 0 1-320 0c0-20.064 39.84-139.744 65.696-208H544a96 96 0 0 1-96-96v-32a96 96 0 0 1 96-96h320a96 96 0 0 1 96 96v32a96 96 0 0 1-96 96z m-221.536 98.464C623.104 426.24 608 475.392 608 480a96 96 0 1 0 192 0c0-6.304-52.192-158.464-70.336-208h-51.2c-8 20.16-22.4 59.264-36 98.464zM896 144a32 32 0 0 0-32-32H544a32 32 0 0 0-32 32v32a32 32 0 0 0 32 32h320a32 32 0 0 0 32-32v-32z"  horiz-adv-x="1024" />

    
    <glyph glyph-name="shujukanban" unicode="&#60275;" d="M979.2 737.152a32 32 0 0 1-38.4 23.936l-166.848-38.656a32 32 0 0 1-15.808-53.408L794.56 631.36l-194.56-173.568-101.024 95.68a32 32 0 0 1-45.152-1.152l-216.736-227.264A64 64 0 1 1 288 262.4c0 6.944-1.376 13.472-3.424 19.712l193.536 202.944 99.232-93.952a32 32 0 0 1 43.296-0.64L839.04 585.28l41.504-42.976a32 32 0 0 1 53.92 13.92l44.448 165.408a31.84 31.84 0 0 1 0.288 15.52zM928 445.536a32 32 0 0 1-32-32V160a32 32 0 0 0-32-32H160a32 32 0 0 0-32 32V736a32 32 0 0 0 32 32h530.656a32 32 0 0 1 0 64H160a96 96 0 0 1-96-96v-576a96 96 0 0 1 96-96h704a96 96 0 0 1 96 96v253.536a32 32 0 0 1-32 32zM912 0h-800a32 32 0 0 1 0-64h800a32 32 0 0 1 0 64z"  horiz-adv-x="1024" />

    
    <glyph glyph-name="yingyongguanli" unicode="&#60276;" d="M384 800H192a96 96 0 0 1-96-96v-192a96 96 0 0 1 96-96h192a96 96 0 0 1 96 96V704a96 96 0 0 1-96 96z m32-288a32 32 0 0 0-32-32H192a32 32 0 0 0-32 32V704a32 32 0 0 0 32 32h192a32 32 0 0 0 32-32v-192zM384 352H192a96 96 0 0 1-96-96v-192a96 96 0 0 1 96-96h192a96 96 0 0 1 96 96v192a96 96 0 0 1-96 96z m32-288a32 32 0 0 0-32-32H192a32 32 0 0 0-32 32v192a32 32 0 0 0 32 32h192a32 32 0 0 0 32-32v-192zM832 352h-192a96 96 0 0 1-96-96v-192a96 96 0 0 1 96-96h192a96 96 0 0 1 96 96v192a96 96 0 0 1-96 96z m32-288a32 32 0 0 0-32-32h-192a32 32 0 0 0-32 32v192a32 32 0 0 0 32 32h192a32 32 0 0 0 32-32v-192zM736 608m-192 0a192 192 0 1 1 384 0 192 192 0 1 1-384 0Z"  horiz-adv-x="1024" />

    
    <glyph glyph-name="yibiaopan" unicode="&#60277;" d="M959.36 371.2c0.128 4.288 0.64 8.48 0.64 12.8 0 53.6-9.408 105.92-27.616 155.2a32 32 0 0 1-60.032-22.144c13.76-37.28 21.28-76.64 22.944-117.024H832a32 32 0 0 1 0-64h60.672c-22.336-178.944-167.552-319.424-348.672-334.4V64a32 32 0 0 1-64 0v-62.368C298.88 16.608 153.664 157.088 131.328 336H192a32 32 0 0 1 0 64H128.8C136.832 593.92 288.224 750.528 480 766.368V704a32 32 0 0 1 64 0V766.336c42.912-3.552 84.48-13.856 123.36-31.072a31.968 31.968 0 1 1 25.92 58.496A445.824 445.824 0 0 1 512 832C264.576 832 64 631.424 64 384c0-4.32 0.512-8.512 0.64-12.8-0.096-1.12-0.64-2.08-0.64-3.2 0-1.888 0.768-3.552 1.088-5.344C76.288 125.216 271.776-64 512-64s435.712 189.216 446.912 426.656c0.32 1.792 1.088 3.456 1.088 5.344 0 1.12-0.544 2.08-0.64 3.2zM851.392 733.408L475.936 572.48A191.936 191.936 0 0 1 512 192a191.936 191.936 0 0 1 179.296 123.744L892.16 688.832c0.288 0.544 0.256 1.152 0.512 1.696 0.96 2.016 1.408 4.16 1.92 6.336 0.448 1.92 0.992 3.776 1.088 5.728 0.096 1.952-0.288 3.808-0.576 5.76-0.32 2.24-0.576 4.384-1.344 6.496-0.192 0.576-0.128 1.184-0.352 1.76-0.544 1.312-1.6 2.176-2.304 3.36a29.664 29.664 0 0 1-3.744 5.408 28.864 28.864 0 0 1-5.056 4.192c-1.12 0.8-1.888 1.92-3.136 2.592-0.544 0.288-1.152 0.256-1.696 0.512-2.016 0.96-4.16 1.408-6.336 1.92-1.92 0.448-3.776 0.992-5.728 1.088-1.952 0.096-3.808-0.288-5.76-0.576-2.24-0.32-4.384-0.576-6.496-1.344-0.576-0.192-1.184-0.096-1.76-0.352z m-253.056-178.08l194.048 83.168-100.768-187.136a192.32 192.32 0 0 1-93.28 103.968z"  horiz-adv-x="1024" />

    
    <glyph glyph-name="zhanghaoquanxianguanli" unicode="&#60278;" d="M832 490.656h-224a32 32 0 0 1 0-64h224a32 32 0 0 1 0 64zM832 330.656h-224a32 32 0 0 1 0-64h224a32 32 0 0 1 0 64zM404.352 260.64v20.864c30.816 19.968 60.544 55.04 76.768 98.048 11.488 4.992 19.744 19.104 26.4 44.256 5.152 19.488-3.104 32.352-14.272 39.488C487.744 555.168 434.144 608 352 608c-83.296 0-139.456-54.368-143.776-148.672-10.112-8.352-16.608-21.76-11.552-40.864 7.2-27.232 16.096-42.88 28.352-48.864 17.312-38.656 45.664-70.016 74.624-88.384v-20.576C219.04 251.968 160 223.744 160 190.272c0-40.384 384-40.384 384 0 0 33.472-59.04 61.696-139.648 70.368zM896 768H128a96 96 0 0 1-96-96v-576a96 96 0 0 1 96-96h768a96 96 0 0 1 96 96V672a96 96 0 0 1-96 96z m32-672a32 32 0 0 0-32-32H128a32 32 0 0 0-32 32V672a32 32 0 0 0 32 32h768a32 32 0 0 0 32-32v-576z"  horiz-adv-x="1024" />

    
    <glyph glyph-name="yuanquyunwei" unicode="&#60279;" d="M662.624 224.224a31.968 31.968 0 1 1-45.248-45.248l112-112a31.968 31.968 0 1 1 45.248 45.248l-112 112zM712.896 324.384a247.36 247.36 0 0 1-334.112 269.568 31.968 31.968 0 0 1-11.008-52.448l97.824-97.824a31.968 31.968 0 0 0 0-45.248l-31.328-31.328a31.968 31.968 0 0 0-45.248 0L290.88 465.248a32 32 0 0 1-52.384-10.848 247.36 247.36 0 0 1 268-335.456l145.824-145.824a145.6 145.6 0 1 1 205.92 205.92l-145.344 145.344z m100.096-306.016a81.6 81.6 0 0 0-115.392 0l-170.336 170.336-17.28-4a183.36 183.36 0 0 0-224.032 194.944l57.824-57.824a96 96 0 0 1 135.776 0l31.328 31.328a96 96 0 0 1 0 135.776l-57.248 57.248a183.36 183.36 0 0 0 193.472-225.024l-4.096-17.376 170.016-170.016c31.808-31.872 31.808-83.52-0.032-115.392zM944.672 472.672l-363.2 363.2a96.096 96.096 0 0 1-135.776 0l-363.2-363.2a96.032 96.032 0 0 1 15.104-148.064V0c0-52.928 43.072-96 96-96h320a32 32 0 1 1 0 64h-320c-17.632 0-32 14.336-32 32V344.256c0 13.664-8.672 25.824-21.6 30.272a32 32 0 0 0-12.256 52.896l363.2 363.2a32.064 32.064 0 0 0 45.28 0l363.2-363.232c6.048-6.016 9.376-14.048 9.376-22.624a31.808 31.808 0 0 0-21.6-30.24 32.032 32.032 0 0 1-21.632-30.272v-76.544a32 32 0 1 1 64 0v56.864a95.456 95.456 0 0 1 43.232 80.192c0 25.664-9.984 49.792-28.128 67.904z"  horiz-adv-x="1024" />

    
    <glyph glyph-name="slack" unicode="&#58945;" d="M421.459253 426.829862l44.153837-131.608297 136.727582 45.817605-44.153837 131.139028-136.727582-46.073568v0.725232zM803.059322 296.288083l-66.337407-22.226231 23.036784-68.683746a53.155247 53.155247 0 0 0-52.088729-69.835585 53.752497 53.752497 0 0 0-49.273123 36.218944l-23.036784 68.555764-136.940885-45.774944 22.994123-68.598425a53.283229 53.283229 0 0 0-52.430015-69.920907 54.008461 54.008461 0 0 0-49.315783 36.261606l-22.994123 69.067692-66.593372-22.354213c-6.399107-1.919732-12.158303-2.602303-18.557409-2.602303a54.136443 54.136443 0 0 0-49.273123 36.474908 52.685979 52.685979 0 0 0 33.275356 67.190622l66.55071 22.396874L319.96942 394.194417l-66.166765-22.396874a53.92314 53.92314 0 0 0-18.258784-2.730285 53.197908 53.197908 0 0 0-48.675873 36.176283 53.32589 53.32589 0 0 0 33.957927 67.147961l66.550711 22.18357-23.036785 68.470443a53.240569 53.240569 0 0 0 33.957927 67.190621 52.856622 52.856622 0 0 0 67.14796-33.403337l22.994124-68.598425L524.740837 574.051979l-23.036785 68.470442a53.581854 53.581854 0 0 0 33.659302 67.147961 53.283229 53.283229 0 0 0 67.190621-33.744623l23.036785-69.153014 66.337407 21.756963a53.197908 53.197908 0 0 0 67.190621-33.232695 53.069926 53.069926 0 0 0-33.445998-67.190621l-66.422728-22.354213 44.153837-131.650957 66.166764 22.012927a53.240569 53.240569 0 0 0 67.190621-33.915266c9.385357-28.15607-5.759196-58.231872-33.232695-67.147961l-0.469267 1.237161z m177.937829 228.490773C875.411889 876.431105 722.942505 958.638297 371.119613 853.010374 19.467365 747.467773-62.739827 595.08371 42.888096 243.132836c105.585262-351.73757 257.926664-433.85944 609.877537-328.231518 351.73757 105.585262 433.85944 257.926664 328.231518 609.877538z"  horiz-adv-x="1024" />

    
    <glyph glyph-name="jizhanguanli" unicode="&#60280;" d="M928.16-32h-33.984c0.192 1.44 0.864 2.72 0.864 4.224V91.20000000000005c0.256 1.632 0.96 3.104 0.96 4.8s-0.704 3.168-0.96 4.8v106.336a32 32 0 1 1-64 0V128H704v123.552c75.04 24.416 128 64.864 128 120.608 0 65.28-79.552 118.688-207.584 139.424a31.68 31.68 0 0 1-36.704-26.496 32 32 0 0 1 26.464-36.704C720.288 431.232 768 393.472 768 372.15999999999997c0-31.104-88.16-76.96-224-83.36v256.352c129.696 8.576 224 68.832 224 147.008 0 43.264-29.056 82.336-81.888 110.016a32 32 0 0 1-29.696-56.672C686.656 729.6320000000001 704 710.208 704 692.16c0-35.744-66.592-75.2-160-82.752V736c0 2.848-0.928 5.376-1.6 8A63.776 63.776 0 0 1 512 864a64 64 0 0 1-64-64c0-24.288 13.696-45.152 33.632-56-0.704-2.624-1.632-5.152-1.632-8v-126.592c-93.408 7.552-160 47.008-160 82.752 0 18.336 18.72 38.752 50.048 54.624a32 32 0 0 1-28.896 57.12C286.24 776.096 256 736.4159999999999 256 692.16c0-78.144 94.304-138.4 224-147.008v-256.352c-135.84 6.368-224 52.224-224 83.36 0 20.416 45.376 57.184 146.336 74.976a32 32 0 0 1-11.136 63.04C266.464 488.16 192 436.576 192 372.15999999999997c0-55.744 52.96-96.16 128-120.576V128H192v96a32 32 0 1 1-64 0v-256H96a32 32 0 1 1 0-64h832.16a32 32 0 1 1 0 64zM640 235.55200000000002V128h-96v96.736a685.952 685.952 0 0 1 96 10.816z m-256 0c30.688-5.728 63.104-9.408 96-10.848V128h-96v107.552zM192-32v96h288v-96H192z m352 96h287.04v-91.776c0-1.504 0.64-2.784 0.864-4.224H544v96z"  horiz-adv-x="1024" />

    
    <glyph glyph-name="gongju" unicode="&#58880;" d="M916.422 182.535l-200.654 200.64c12.922 36.074 19.462 73.782 19.462 112.426 0 184.603-150.18 334.799-334.8 334.799-45.96 0-90.675-9.264-132.867-27.526l-19.96-8.64c-0.032-0.033 0.125-0.048 0.062-0.079a16.995 16.995 0 0 1-5.231-3.581c-6.602-6.616-6.602-17.375 0.033-24.008 0.093-0.094-0.094-0.14-0.033-0.233l187.452-187.454-112.753-112.735-183.685 183.7c-0.28-0.032-0.56-0.047-0.934 0.326-7.785 7.784-20.396 7.784-28.182 0-2.117-2.133-3.675-4.61-4.64-7.256-0.093-0.249-0.218-0.125-0.342-0.14l-6.197-14.324C74.908 586.305 65.628 541.59 65.628 495.6c0-184.588 150.18-334.8 334.8-334.8 38.61 0 76.319 6.54 112.438 19.462l200.655-200.627c27.092-27.089 63.12-42.035 101.45-42.035h0.034c38.299 0 74.358 14.946 101.45 42.035 55.892 55.926 55.892 146.943-0.033 202.9z m-45.057-157.81c-15.07-15.072-35.093-23.354-56.36-23.354h-0.033c-21.298 0-41.32 8.283-56.36 23.353L527.847 255.46l-19.896-8.594c-34.159-14.79-70.342-22.293-107.522-22.293-149.432 0-271.027 121.563-271.027 271.027 0 20.769 2.335 41.212 6.975 61.141l168.582-168.614c7.07-5.637 16.782-5.714 23.976-0.36l177.24 177.24c0.062 0.062-0.064 0.14 0 0.202 7.223 7.225 7.441 18.497 1.244 26.329L339.273 759.669c19.96 4.623 40.386 6.958 61.155 6.958 149.433 0 271.03-121.58 271.03-271.027 0-37.227-7.507-73.393-22.296-107.491l-8.594-19.896 230.765-230.765c31.077-31.08 31.077-81.646 0.032-112.724z"  horiz-adv-x="1024" />

    
    <glyph glyph-name="guanbi" unicode="&#60281;" d="M548.992 392.256L885.44 728.672a31.968 31.968 0 1 1-45.248 45.248L503.744 437.504 167.328 773.92a31.968 31.968 0 1 1-45.248-45.248l336.416-336.416L122.08 55.84a31.968 31.968 0 1 1 45.248-45.248l336.416 336.416L840.16 10.56a31.968 31.968 0 1 1 45.248 45.248L548.992 392.256z"  horiz-adv-x="1024" />

    
    <glyph glyph-name="zidingyi" unicode="&#60282;" d="M727.008 408.768l194.016 184.32a99.2 99.2 0 0 1 0 140.288l-48.416 48.416a99.2 99.2 0 0 1-138.464 1.76L544.64 603.616l-184.064 196.64-1.504 1.568a64.832 64.832 0 0 1-91.712 0.384L129.184 664.032a64.8 64.8 0 0 1-1.12-90.144l181.344-193.728-171.456-162.88a99.264 99.264 0 0 1-28.256-49.28l-28.992-123.744a65.632 65.632 0 0 1 82.4-77.92l119.296 35.136a99.744 99.744 0 0 1 40.32 23.232l169.056 160.608 203.616-217.536 1.504-1.568a64.832 64.832 0 0 1 91.712-0.384l138.176 138.176a64.8 64.8 0 0 1 1.12 90.144l-200.896 214.624zM319.424 109.824l-90.112 90.112a31.488 31.488 0 0 1-9.792 6.496L667.104 631.648l94.272-94.272c1.408-1.408 3.168-2.08 4.768-3.168L319.424 109.824zM778.208 737.216a35.2 35.2 0 0 0 49.12-0.64l48.416-48.416c13.76-13.76 13.76-36.032-0.64-50.4l-64.448-61.216c-1.28 2.08-2.24 4.288-4.064 6.112l-93.12 93.12 64.736 61.44zM288.512 496.096c8 0.128 16 3.168 22.112 9.28l48 48a31.968 31.968 0 1 1-45.248 45.248l-48-48a31.68 31.68 0 0 1-8.928-20.256L174.816 617.6c-0.512 0.512-0.512 1.024-0.352 1.152L312.64 756.96c0.128 0.128 0.672 0.128 1.248-0.416l184.384-196.992-142.432-135.328-67.328 71.872zM145.024 27.712a1.6 1.6 0 0 0-2.016 1.92l28.992 123.744c0.992 4.16 2.944 7.968 5.312 11.488a31.808 31.808 0 0 1 6.752-10.144l88.288-88.288a35.072 35.072 0 0 0-8-3.552l-119.328-35.168z m598.336-16.672c-0.128-0.128-0.672-0.128-1.248 0.416l-125.6 134.176a31.232 31.232 0 0 1 14.08 7.712l48 48a31.968 31.968 0 1 1-45.248 45.248l-48-48a31.68 31.68 0 0 1-7.296-11.904l-39.904 42.656 142.432 135.328 200.576-214.304c0.48-0.512 0.48-1.024 0.352-1.152l-138.144-138.176z"  horiz-adv-x="1024" />

    
    <glyph glyph-name="xiajiantou" unicode="&#60283;" d="M573.056 144l308.8 404.608A76.8 76.8 0 0 1 820.736 672H203.232a76.8 76.8 0 0 1-61.056-123.392l308.8-404.608a76.8 76.8 0 0 1 122.08 0z"  horiz-adv-x="1024" />

    
    <glyph glyph-name="shangjiantou" unicode="&#60284;" d="M573.056 624l308.8-404.608A76.8 76.8 0 0 0 820.736 96H203.232a76.8 76.8 0 0 0-61.056 123.392L450.976 624a76.8 76.8 0 0 0 122.08 0z"  horiz-adv-x="1024" />

    
    <glyph glyph-name="icon_loading" unicode="&#60288;" d="M480 800a32 32 0 0 0 64 0v-192a32 32 0 0 0-64 0V800z m250.624-60.64a32 32 0 1 0 51.776-37.632l-112.832-155.328a32 32 0 0 0-51.808 37.632l112.864 155.328z m167.136-196.384a32 32 0 1 0 19.776-60.864l-182.624-59.328a32 32 0 0 0-19.776 60.864l182.624 59.328z m19.776-257.088a32 32 0 1 0-19.776-60.864l-182.624 59.328a32 32 0 0 0 19.776 60.864l182.624-59.328zM782.4 66.24a32 32 0 0 0-51.776-37.632l-112.864 155.328a32 32 0 1 0 51.808 37.632l112.832-155.328zM544-32a32 32 0 0 0-64 0v192a32 32 0 0 0 64 0v-192z m-250.624 60.64a32 32 0 0 0-51.776 37.632l112.832 155.328a32 32 0 0 0 51.808-37.632l-112.864-155.328z m-167.136 196.384a32 32 0 1 0-19.776 60.864l182.624 59.328a32 32 0 0 0 19.776-60.864l-182.624-59.328z m-19.776 257.088a32 32 0 0 0 19.776 60.864l182.624-59.328a32 32 0 1 0-19.776-60.864l-182.624 59.328zM241.6 701.76a32 32 0 1 0 51.776 37.632l112.864-155.328a32 32 0 1 0-51.808-37.632L241.6 701.76z"  horiz-adv-x="1024" />

    
    <glyph glyph-name="icon_renwujincheng" unicode="&#60296;" d="M448 0a32 32 0 0 0 0-64H163.04C108.16-64 64-18.624 64 36.928V731.072C64 786.624 108.16 832 163.04 832h569.92C787.84 832 832 786.624 832 731.072v-182.464a32 32 0 0 0-64 0V731.072C768 751.68 752.096 768 732.96 768H163.04C143.904 768 128 751.68 128 731.072v-694.144C128 16.32 143.904 0 163.04 0H448zM736-64a256 256 0 1 0 0 512 256 256 0 0 0 0-512z m0 64a192 192 0 1 1 0 384 192 192 0 0 1 0-384zM752 208h79.456a32 32 0 1 0 0-64H720a32 32 0 0 0-32 32v96a32 32 0 0 0 64 0v-64zM288 544a32 32 0 0 0 0 64h320a32 32 0 0 0 0-64H288zM288 288a32 32 0 0 0 0 64h64a32 32 0 0 0 0-64H288z"  horiz-adv-x="1024" />

    
    <glyph glyph-name="icon_rukou" unicode="&#60297;" d="M192 551.36H128V704a96 96 0 0 0 96 96h608a96 96 0 0 0 96-96v-640a96 96 0 0 0-96-96H224a96 96 0 0 0-96 96v126.272h64V64a32 32 0 0 1 32-32h608a32 32 0 0 1 32 32V704a32 32 0 0 1-32 32H224a32 32 0 0 1-32-32v-152.64zM538.688 485.152a32 32 0 1 0 39.808 50.112l148.32-117.856c23.744-18.848 10.4-57.056-19.904-57.056H72.832a32 32 0 1 0 0 64h542.368l-76.48 60.8z"  horiz-adv-x="1024" />

    
    <glyph glyph-name="icon_yiwenkongxin" unicode="&#60298;" d="M480 112a48 48 0 1 0 96 0 48 48 0 0 0-96 0z m74.432 158.144a32 32 0 1 0-64 0v62.816a32 32 0 0 0 32 32c64.96 0 117.568 60.576 117.568 125.472a117.568 117.568 0 0 1-235.104 0 32 32 0 1 0-64 0 181.568 181.568 0 0 0 363.104 0c0-89.344-64.544-171.52-149.568-186.656v-33.6zM512-96C246.912-96 32 118.912 32 384 32 649.088 246.912 864 512 864c265.088 0 480-214.912 480-480 0-265.088-214.912-480-480-480z m0 64c229.76 0 416 186.24 416 416S741.76 800 512 800 96 613.76 96 384s186.24-416 416-416z"  horiz-adv-x="1024" />

    
    <glyph glyph-name="icon_fabu" unicode="&#60299;" d="M166.464 447.296l212.64-128.736a32 32 0 1 0-33.152-54.72l-266.528 161.312a32 32 0 0 0 4.256 56.928l832 347.456a32 32 0 0 0 43.744-35.52l-145.76-768a32 32 0 0 0-48.576-21.056l-270.208 171.328a32 32 0 0 0 34.24 54.08l230.464-146.112L885.44 747.52 166.464 447.296zM416 263.904V0a32 32 0 0 0-64 0v278.624a32 32 0 0 0 11.2 24.32L752.192 636a32 32 0 0 0 41.6-48.64L416 263.936z"  horiz-adv-x="1024" />

    
    <glyph glyph-name="icon_tianjia" unicode="&#60300;" d="M512-96C246.912-96 32 118.912 32 384 32 649.088 246.912 864 512 864c265.088 0 480-214.912 480-480 0-265.088-214.912-480-480-480z m0 64c229.76 0 416 186.24 416 416S741.76 800 512 800 96 613.76 96 384s186.24-416 416-416zM256 352a32 32 0 0 0 0 64h512a32 32 0 0 0 0-64H256zM480 640a32 32 0 0 0 64 0v-512a32 32 0 0 0-64 0V640z"  horiz-adv-x="1024" />

    
    <glyph glyph-name="icon_yulan" unicode="&#60301;" d="M512 160a224 224 0 1 0 0 448 224 224 0 0 0 0-448z m0 64a160 160 0 1 1 0 320 160 160 0 0 1 0-320zM512 32C323.232 32 154.144 144.736 5.44 366.144a32 32 0 0 0 0 35.712C154.144 623.296 323.2 736 512 736c188.768 0 357.856-112.736 506.56-334.144a32 32 0 0 0 0-35.712C869.856 144.704 700.8 32 512 32z m0 64c159.84 0 306.72 94.784 441.248 288C818.72 577.216 671.84 672 512 672c-159.84 0-306.72-94.784-441.248-288 134.528-193.216 281.408-288 441.248-288z"  horiz-adv-x="1024" />

    
    <glyph glyph-name="icon_zhanghao" unicode="&#60302;" d="M620.256 89.824a32 32 0 0 0-28.256 31.776v80.736a32 32 0 0 0 13.216 25.92c52.864 38.272 99.168 99.68 124.736 169.152a32 32 0 0 0 19.584 19.2c9.76 3.36 21.536 24.224 32.416 70.72 5.92 25.152-1.024 40.96-16.576 50.4a32 32 0 0 0-15.264 24.48C736.448 714.688 650.144 800 514.24 800c-138.24 0-227.936-88.064-240.672-242.432a32 32 0 0 0-15.04-24.544c-16.416-10.24-22.272-23.36-16.224-44.032 11.392-38.88 23.84-60.352 36.8-68.48a32 32 0 0 0 13.12-16.384c25.088-70.496 72.224-133.536 126.72-173.504a32 32 0 0 0 13.056-25.792V121.6a32 32 0 0 0-28.256-31.776c-125.12-14.72-212.608-54.4-225.952-88.672 2.304-1.056 5.12-2.176 8.384-3.296 17.184-6.016 43.52-11.52 77.12-16.096 65.504-8.896 155.168-13.76 248.704-13.76s183.2 4.864 248.704 13.76c33.6 4.576 59.936 10.08 77.12 16.096 3.296 1.12 6.08 2.24 8.384 3.296-13.344 34.272-100.832 73.92-225.92 88.64z m35.744 59.776c151.36-22.656 256-79.168 256-157.376C912-74.784 755.84-96 512-96s-400 21.216-400 88.224c0 78.208 104.64 134.72 256 157.376V189.12c-56.64 45.536-104.576 110.944-132.576 184.128-23.936 19.392-40.928 51.296-54.528 97.792-12.8 43.648 0.064 81.344 30.336 106.592C231.456 755.52 346.336 864 514.24 864c165.6 0 276.992-105.728 298.08-281.44 29.44-24.864 42.72-63.904 31.968-109.856-13.312-56.768-30.848-92.512-58.976-109.632-28.448-70.624-74.976-133.184-129.312-176.576v-36.896z"  horiz-adv-x="1024" />

    
    <glyph glyph-name="icon_wangye" unicode="&#60303;" d="M896 832H128a64 64 0 0 1-64-64v-768a64 64 0 0 1 64-64h768a64 64 0 0 1 64 64V768a64 64 0 0 1-64 64zM128 768h768v-192H128V768z m768-768H128V512h768v-512zM256 320h512a32 32 0 0 1 0 64H256a32 32 0 0 1 0-64zM256 160h512a32 32 0 0 1 0 64H256a32 32 0 0 1 0-64zM768 704h-64a32 32 0 0 1 0-64h64a32 32 0 0 1 0 64z"  horiz-adv-x="1024" />

    
    <glyph glyph-name="icon_shezhi" unicode="&#60304;" d="M482.88 784l-17.28-90.688-20.64-4.512a309.696 309.696 0 0 1-99.776-41.088l-18.688-11.84-73.28 55.04-44.64-44.64 51.904-76.416-11.392-17.76a310.016 310.016 0 0 1-41.568-99.584l-4.8-21.6-90.72-12.896v-63.104l90.688-17.312 4.512-20.64a309.984 309.984 0 0 1 41.088-99.776l11.84-18.688-55.04-73.28 44.64-44.64 76.416 51.904 17.76-11.392a310.016 310.016 0 0 1 99.584-41.568l21.6-4.8 12.896-90.72h63.104l17.312 90.688 20.64 4.512a309.984 309.984 0 0 1 99.776 41.088l18.688 11.84 73.28-55.04 44.64 44.64-51.904 76.416 11.392 17.76a310.016 310.016 0 0 1 41.568 99.584l4.8 21.6 90.72 12.896V413.12l-90.688 17.312-4.512 20.64a309.984 309.984 0 0 1-41.088 99.776l-11.84 18.688 55.04 73.28-44.64 44.64-76.416-51.904-17.76 11.392a310.144 310.144 0 0 1-99.584 41.568l-21.6 4.8-12.896 90.72H482.88zM410.56 746.144l19.424 101.856h171.584l14.624-102.624c28-8.064 54.848-19.328 80.128-33.568l85.792 58.304 121.344-121.344-62.272-82.88c14.08-25.408 25.152-52.352 32.96-80.416l101.888-19.424v-171.584l-102.624-14.624a373.92 373.92 0 0 0-33.568-80.128l58.304-85.792-121.344-121.344-82.88 62.272c-25.408-14.08-52.352-25.152-80.416-32.96l-19.424-101.888h-171.584l-14.624 102.624a373.92 373.92 0 0 0-80.128 33.568L241.92-2.112l-121.344 121.344 62.272 82.88a373.824 373.824 0 0 0-32.96 80.416L48 301.952v171.584l102.624 14.624c8.064 27.968 19.328 54.848 33.568 80.128L125.888 654.08l121.344 121.344 82.88-62.272a373.856 373.856 0 0 0 80.416 32.96zM512 192a192 192 0 1 0 0 384 192 192 0 0 0 0-384z m0 64a128 128 0 1 1 0 256 128 128 0 0 1 0-256z"  horiz-adv-x="1024" />

    
    <glyph glyph-name="icon_baocun" unicode="&#60305;" d="M941.248 544L672 813.248A64 64 0 0 1 626.752 832H128a64 64 0 0 1-64-64v-768a64 64 0 0 1 64-64h768a64 64 0 0 1 64 64V498.752A64 64 0 0 1 941.248 544zM256 768h48v-160H256V768z m112 0H512v-160h-144V768zM256 0v192h512v-192H256z m640 0h-64v224a32 32 0 0 1-32 32H224a32 32 0 0 1-32-32v-224H128V768h64v-192a32 32 0 0 1 32-32h320a32 32 0 0 1 32 32V768h50.752L896 498.752V0z"  horiz-adv-x="1024" />

    
    <glyph glyph-name="icon_yingyongguanli" unicode="&#60306;" d="M192 736a32 32 0 0 1-32-32v-192a32 32 0 0 1 32-32h192a32 32 0 0 1 32 32V704a32 32 0 0 1-32 32H192z m0 64h192a96 96 0 0 0 96-96v-192a96 96 0 0 0-96-96H192a96 96 0 0 0-96 96V704a96 96 0 0 0 96 96zM192 288a32 32 0 0 1-32-32v-192a32 32 0 0 1 32-32h192a32 32 0 0 1 32 32v192a32 32 0 0 1-32 32H192z m0 64h192a96 96 0 0 0 96-96v-192a96 96 0 0 0-96-96H192a96 96 0 0 0-96 96v192a96 96 0 0 0 96 96zM640 288a32 32 0 0 1-32-32v-192a32 32 0 0 1 32-32h192a32 32 0 0 1 32 32v192a32 32 0 0 1-32 32h-192z m0 64h192a96 96 0 0 0 96-96v-192a96 96 0 0 0-96-96h-192a96 96 0 0 0-96 96v192a96 96 0 0 0 96 96zM602.272 629.728a32 32 0 0 1 0-45.28l112-112a32 32 0 0 1 45.28 0l112 112a32 32 0 0 1 0 45.28l-112 112a32 32 0 0 1-45.28 0l-112-112z m-45.248 45.248l112 112a96 96 0 0 0 135.776 0l112-112a96 96 0 0 0 0-135.776l-112-112a96 96 0 0 0-135.776 0l-112 112a96 96 0 0 0 0 135.776z"  horiz-adv-x="1024" />

    
    <glyph glyph-name="icon_shiyongwendang" unicode="&#60307;" d="M288 576a32 32 0 1 0 0 64h448a32 32 0 0 0 0-64H288zM288 352a32 32 0 0 0 0 64h448a32 32 0 0 0 0-64H288zM288 128a32 32 0 0 0 0 64h128a32 32 0 0 0 0-64H288zM807.968 93.76a32 32 0 0 0 41.984-48.32l-153.856-133.6a32 32 0 0 0-20.992-7.84H195.04C140.16-96 96-50.624 96 4.928V763.072C96 818.624 140.16 864 195.04 864h633.92C883.84 864 928 818.624 928 763.072v-564.32a32 32 0 1 0-64 0V763.072C864 783.68 848.096 800 828.96 800H195.04C175.904 800 160 783.68 160 763.072v-758.144C160-15.68 175.904-32 195.04-32h468.096l144.832 125.76zM704-63.136a32 32 0 1 0-64 0v186.24C640 178.592 684.16 224 739.04 224h157.632a32 32 0 0 0 0-64h-157.632c-19.136 0-35.04-16.32-35.04-36.928v-186.24z"  horiz-adv-x="1024" />

    
    <glyph glyph-name="icon_bangzhuwendang" unicode="&#60308;" d="M896 832H234.656C157.728 832 96 767.2 96 688c0-5.472 0.992-10.688 1.536-16H96v-576c0-88.032 68.544-160 153.92-160H896V608H234.656C193.792 608 160 643.488 160 688S193.792 768 234.656 768H896V832z m-432-288H640v-172.192l-68.192 53.696a31.968 31.968 0 0 1-39.584 0L464 371.808V544z m-229.344 0H400v-238.112a32 32 0 0 1 51.808-25.152l100.192 78.912 100.192-78.912A32 32 0 0 1 704 305.888V544h128v-544H249.92C200.608 0 160 42.656 160 96V566.976c21.536-14.368 47.04-22.976 74.656-22.976zM255.776 720H832v-64H255.776z"  horiz-adv-x="1024" />

    
    <glyph glyph-name="biaodanzujian-shurukuang" unicode="&#60309;" d="M635.328 160a32 32 0 0 1-32 32H96V544h507.2a32 32 0 1 1 0 64H64a32 32 0 0 1-32-32v-416a32 32 0 0 1 32-32h539.328a32 32 0 0 1 32 32zM960 608h-92.928a32 32 0 1 1 0-64H928v-352h-60.288a32 32 0 1 1 0-64H960a32 32 0 0 1 32 32V576a32 32 0 0 1-32 32zM832.672 48H768v640h64.288a32 32 0 1 1 0 64H639.36a32 32 0 1 1 0-64H704v-640h-64.64a32 32 0 1 1 0-64h193.28a32 32 0 1 1 0.032 64z"  horiz-adv-x="1024" />

    
    <glyph glyph-name="biaodanzujian-biaoge" unicode="&#60310;" d="M96 736v-704h832V736H96z m309.344-400.192v160h192v-160h-192z m192-64V96h-192v175.808h192zM160 495.808h181.344v-160H160v160z m501.344 0H864v-160h-202.656v160zM864 672v-112.192H160V672h704zM160 271.808h181.344V96H160v175.808zM661.344 96v175.808H864V96h-202.656z"  horiz-adv-x="1024" />

    
    <glyph glyph-name="biaodanzujian-xialakuang" unicode="&#60311;" d="M960 768H64a32 32 0 0 1-32-32v-416a32 32 0 0 1 32-32h896a32 32 0 0 1 32 32V736a32 32 0 0 1-32 32z m-32-416H96V704h832v-352zM896 248.736a32 32 0 0 1-32-32V64H160v152.736a32 32 0 1 1-64 0V32a32 32 0 0 1 32-32h768a32 32 0 0 1 32 32v184.736a32 32 0 0 1-32 32zM685.92 425.632a31.904 31.904 0 0 1 45.728 0l123.232 126.016a31.968 31.968 0 1 1-45.76 44.736l-100.352-102.624-100.384 102.624a32 32 0 0 1-45.76-44.736l123.296-126.016z"  horiz-adv-x="1024" />

    
    <glyph glyph-name="tubiao-bingtu" unicode="&#60312;" d="M896 416c-1.344 0-2.464-0.608-3.744-0.768-1.28 0.16-2.432 0.768-3.744 0.768H544V764c0 0.704-0.352 1.312-0.416 2.016 0.064 0.672 0.416 1.28 0.416 1.984a32 32 0 0 1-32 32C282.624 800 96 613.376 96 384s186.624-416 416-416 416 186.624 416 416a32 32 0 0 1-32 32zM512 32C317.92 32 160 189.92 160 384 160 567.296 300.864 718.144 480 734.368V384a32 32 0 0 1 32-32h350.368C846.144 172.864 695.296 32 512 32zM625.664 717.28a355.36 355.36 0 0 0 216.832-211.84 32 32 0 1 1 60.064 22.048 414.24 414.24 0 0 1-256.224 250.336 31.968 31.968 0 1 1-20.672-60.544z"  horiz-adv-x="1024" />

    
    <glyph glyph-name="biaodanzujian-anniu" unicode="&#60313;" d="M960 768H64a32 32 0 0 1-32-32v-576a32 32 0 0 1 32-32h265.792a32 32 0 1 1 0 64H96V704h832v-512h-68.192a32 32 0 1 1 0-64H960a32 32 0 0 1 32 32V736a32 32 0 0 1-32 32zM600.704 271.872a32 32 0 0 1-44.416 1.6l-61.792-55.392-12.576 239.84 237.408-28.288-48.352-45.088a32 32 0 1 1 43.616-46.816l98.784 92.128a32 32 0 0 1-18.016 55.2l-343.616 40.928a32 32 0 0 1-35.712-33.44l18.048-344.576a32 32 0 0 1 53.312-22.112l88.64 79.424 192.544-199.648a31.968 31.968 0 1 1 46.048 44.416l-213.92 221.824z"  horiz-adv-x="1024" />

    
    <glyph glyph-name="gongyezujian-yibiaopan" unicode="&#60314;" d="M512 768C264.96 768 64 567.04 64 320c0-100.544 32.544-195.52 94.08-274.688a31.968 31.968 0 1 1 50.528 39.232A380.384 380.384 0 0 0 128 320C128 531.744 300.256 704 512 704s384-172.256 384-384c0-86.144-27.872-167.584-80.64-235.456a31.904 31.904 0 0 1 5.632-44.864 31.84 31.84 0 0 1 44.864 5.632A443.264 443.264 0 0 1 960 320c0 247.04-200.96 448-448 448zM512 544a32 32 0 0 1 32 32V640a32 32 0 1 1-64 0v-64a32 32 0 0 1 32-32zM241.888 474.528a32 32 0 1 1-35.776-53.056l53.056-35.776a31.936 31.936 0 0 1 44.416 8.64 32 32 0 0 1-8.64 44.416l-53.056 35.776zM810.848 472.064a32 32 0 0 1-45.152 3.168l-48.32-41.984a32 32 0 0 1 41.984-48.32l48.32 41.984a32 32 0 0 1 3.168 45.152zM607.392 160c0 2.592 0.288 5.12-0.352 7.744l-64 256c-0.352 1.44-1.28 2.496-1.824 3.84-0.864 2.144-1.632 4.256-2.944 6.176-1.12 1.664-2.528 2.944-3.904 4.352-1.504 1.536-2.912 3.008-4.704 4.224-1.76 1.184-3.712 1.888-5.664 2.688-1.44 0.608-2.624 1.6-4.224 1.984-0.512 0.128-0.992-0.032-1.504 0.064-2.048 0.416-4.128 0.288-6.272 0.288-2.112 0-4.192 0.128-6.24-0.288-0.512-0.096-1.024 0.064-1.536-0.064-1.632-0.416-2.848-1.44-4.352-2.08-1.888-0.8-3.744-1.472-5.472-2.592-1.888-1.248-3.36-2.816-4.928-4.384-1.344-1.344-2.656-2.592-3.744-4.192-1.312-1.92-2.08-4-2.944-6.144-0.544-1.344-1.472-2.432-1.856-3.872l-64-256c-0.672-2.624-0.352-5.184-0.352-7.744H416c0-1.408 0.352-2.688 0.416-4.096l0.128-1.312C419.424 104.224 460.928 64 512 64s92.576 40.224 95.456 90.592l0.128 1.312c0.064 1.376 0.416 2.688 0.416 4.096h-0.608zM512 128a31.808 31.808 0 0 0-31.552 29.824L512 284.096l31.552-126.24A31.776 31.776 0 0 0 512 128z"  horiz-adv-x="1024" />

    
    <glyph glyph-name="tubiao-qiapian" unicode="&#60315;" d="M928 736H96a32 32 0 0 1-32-32v-672a32 32 0 0 1 32-32h832a32 32 0 0 1 32 32V704a32 32 0 0 1-32 32z m-32-672H128V672h768v-608zM230.592 447.904H544a32 32 0 1 1 0 64H230.592a32 32 0 0 1 0-64zM230.592 255.904H544a32 32 0 1 1 0 64H230.592a32 32 0 1 1 0-64zM768 192a32 32 0 0 1 32 32V545.984a32 32 0 1 1-64 0V224a32 32 0 0 1 32-32z"  horiz-adv-x="1024" />

    
    <glyph glyph-name="gongyezujian-zhishideng" unicode="&#60316;" d="M816 320h-31.744v253.152c0 143.424-119.872 260.096-267.2 260.096-147.328 0-267.2-116.672-267.2-260.096V320H208C163.904 320 128 284.128 128 240S163.904 160 208 160H384v-112.576a32 32 0 1 1 64 0V160h128v-176.576a32 32 0 1 1 64 0V160h176c44.128 0 80 35.872 80 80S860.128 320 816 320zM313.888 573.152c0 108.128 91.168 196.096 203.2 196.096s203.2-87.968 203.2-196.096V320h-406.4v253.152zM816 224h-608a16 16 0 0 0 0 32h608c8.8 0 16-7.2 16-16s-7.2-16-16-16z"  horiz-adv-x="1024" />

    
    <glyph glyph-name="tubiao-zhexiantu" unicode="&#60317;" d="M896 0H96a32 32 0 0 0-32 32V672a32 32 0 0 0 64 0v-608h768a32 32 0 1 0 0-64zM247.008 256a32 32 0 0 0-20.992 56.192l200.992 174.24a32 32 0 0 0 42.272-0.288l172.128-153.44 229.088 246.304a32 32 0 0 0 46.88-43.616l-250.432-269.216a31.936 31.936 0 0 0-44.704-2.08l-174.56 155.52-179.744-155.84a31.872 31.872 0 0 0-20.928-7.776z"  horiz-adv-x="1024" />

    
    <glyph glyph-name="xingzhuang-juxing" unicode="&#60318;" d="M864 0H160a32 32 0 0 0-32 32V736a32 32 0 0 0 32 32h704a32 32 0 0 0 32-32v-704a32 32 0 0 0-32-32zM192 64h640V704H192v-640z"  horiz-adv-x="1024" />

    
    <glyph glyph-name="xingzhuang-jianxing" unicode="&#60319;" d="M333.344-61.216c-8.288 0-16.256 3.232-22.24 8.96l-214.176 206.848A32 32 0 0 0 96 199.744L470.624 591.2l-77.184 71.968a32.064 32.064 0 0 0 18.048 55.2l447.264 53.28a32.032 32.032 0 0 0 35.744-33.44l-23.488-448.448a32 32 0 0 0-53.792-21.728l-81.984 76.48-378.784-395.84a32.16 32.16 0 0 0-22.496-9.888h-0.608z m-169.056 239.712l168.16-162.368L710.816 411.52a31.936 31.936 0 0 0 44.928 1.28l54.912-51.2 17.952 341.952-341.056-40.64 50.432-47.04a31.936 31.936 0 0 0 1.312-45.536L164.288 178.496z"  horiz-adv-x="1024" />

    
    <glyph glyph-name="gongyezujian-kaiguan" unicode="&#60320;" d="M704 672H320c-158.784 0-288-129.216-288-288 0-158.816 129.216-288 288-288h384c158.816 0 288 129.184 288 288 0 158.784-129.184 288-288 288z m0-512H320c-123.52 0-224 100.512-224 224 0 123.52 100.48 224 224 224h384c123.488 0 224-100.48 224-224 0-123.488-100.512-224-224-224zM320 576c-105.888 0-192-86.112-192-192s86.112-192 192-192 192 86.112 192 192-86.112 192-192 192z m0-320c-70.592 0-128 57.408-128 128s57.408 128 128 128 128-57.408 128-128-57.408-128-128-128z"  horiz-adv-x="1024" />

    
    <glyph glyph-name="tubiao-zhuzhuangtu" unicode="&#60321;" d="M896 0H96a32 32 0 0 0-32 32V672a32 32 0 0 0 64 0v-608h768a32 32 0 1 0 0-64zM512 143.84a32 32 0 0 0-32 32V545.376a32 32 0 0 0 64 0v-369.536a32 32 0 0 0-32-32zM320 143.424a32 32 0 0 0-32 32V384a32 32 0 0 0 64 0v-208.576a32 32 0 0 0-32-32zM896 143.328a32 32 0 0 0-32 32V732.512a32 32 0 1 0 64 0v-557.184a32 32 0 0 0-32-32zM704 143.264a32 32 0 0 0-32 32V672a32 32 0 1 0 64 0v-496.736a32 32 0 0 0-32-32z"  horiz-adv-x="1024" />

    
    <glyph glyph-name="xingzhuang-tupian" unicode="&#60322;" d="M928 0H96a32 32 0 0 0-32 32V736a32 32 0 0 0 32 32h832a32 32 0 0 0 32-32v-116.864a32 32 0 1 0-64 0V704H128v-640h768V427.456l-206.336-244.736a31.968 31.968 0 0 0-44.896-4l-196.064 162.752-194.656-180.224a31.936 31.936 0 1 0-43.456 46.944l215.232 199.296a32.032 32.032 0 0 0 42.176 1.152l193.216-160.384 242.336 287.456a32.128 32.128 0 0 0 35.424 9.44c12.608-4.608 21.024-16.64 21.024-30.08V32a32 32 0 0 0-32-32zM304 416C242.24 416 192 466.24 192 528S242.24 640 304 640 416 589.76 416 528 365.76 416 304 416z m0 160c-26.464 0-48-21.536-48-48S277.536 480 304 480s48 21.536 48 48-21.536 48-48 48z"  horiz-adv-x="1024" />

    
    <glyph glyph-name="xingzhuang-wenzi" unicode="&#60323;" d="M864.192 688H159.808a32 32 0 0 0 0 64h704.384a32 32 0 1 0 0-64zM512 2.976a32 32 0 0 0-32 32V686.4a32 32 0 0 0 64 0v-651.424a32 32 0 0 0-32-32z"  horiz-adv-x="1024" />

    
    <glyph glyph-name="xingzhuang-tuoyuanxing" unicode="&#60324;" d="M512-32C282.624-32 96 154.624 96 384S282.624 800 512 800s416-186.624 416-416-186.624-416-416-416z m0 768C317.92 736 160 578.08 160 384s157.92-352 352-352 352 157.92 352 352S706.08 736 512 736z"  horiz-adv-x="1024" />

    
    <glyph glyph-name="xingzhuang-sanjiaoxing" unicode="&#60325;" d="M928.64 0a2.144 2.144 0 0 0-0.64 0H96a32.032 32.032 0 0 0-27.552 48.288l416 704c11.488 19.456 43.552 19.456 55.104 0l413.152-699.2A31.936 31.936 0 0 0 928.64 0zM152.064 64h719.84L512 673.088 152.064 64z"  horiz-adv-x="1024" />

    
    <glyph glyph-name="xingzhuang-xingxing" unicode="&#60326;" d="M254.88-48a32 32 0 0 0-31.52 37.344l46.304 272.992-196.128 193.28a32 32 0 0 0 17.792 54.432l270.752 39.776 121.152 248.16c10.72 22.016 46.816 22.016 57.504 0l121.152-248.16 270.752-39.776a32 32 0 0 0 17.824-54.432l-196.128-193.28 45.248-266.816a32 32 0 0 0-29.888-43.52h-0.64c-5.152 0-10.304 1.248-15.04 3.744L512 84.416l-242.08-128.672a32.224 32.224 0 0 0-15.04-3.744zM164.224 456.096l162.24-159.904c7.424-7.328 10.816-17.856 9.088-28.128l-38.208-225.312 199.648 106.112a31.968 31.968 0 0 0 30.016 0l199.648-106.112-38.208 225.312a32 32 0 0 0 9.088 28.128l162.208 159.904-223.84 32.896a32 32 0 0 0-24.096 17.632L512 711.04l-99.808-204.416a31.968 31.968 0 0 0-24.096-17.632l-223.872-32.896z"  horiz-adv-x="1024" />

    
    <glyph glyph-name="guize" unicode="&#60343;" d="M864 736h-164.512A127.712 127.712 0 0 1 576 832a128 128 0 0 1 0-256 127.712 127.712 0 0 1 123.488 96H864a32 32 0 0 0 32-32v-288a32 32 0 0 0-32-32h-304a32 32 0 0 1 0-64H864a96 96 0 0 1 96 96V640a96 96 0 0 1-96 96z m-288-96a64 64 0 1 0 0.032 128.032A64 64 0 0 0 576 640zM832 192c-57.376 0-105.376-38.016-121.632-90.048H384a31.872 31.872 0 0 0-31.744 30.656A127.68 127.68 0 0 1 320 384c-47.264 0-88.064-25.888-110.24-64H160a32 32 0 0 0-32 32V640a32 32 0 0 0 32 32h208a32 32 0 0 1 0 64H160a96 96 0 0 1-96-96v-288a96 96 0 0 1 96-96h32a127.68 127.68 0 0 1 96.16-123.52A95.936 95.936 0 0 1 384 37.91999999999996h322.688A128 128 0 1 1 832 192zM256 256a64 64 0 1 0 128.032-0.032A64 64 0 0 0 256 256z m576-256a64 64 0 1 0 0.032 128.032A64 64 0 0 0 832 0z"  horiz-adv-x="1024" />

    
    <glyph glyph-name="shebeiguanli" unicode="&#60344;" d="M800 160H448a32 32 0 0 1 0-64h352a32 32 0 0 1 0 64zM800 416H448a32 32 0 0 1 0-64h352a32 32 0 0 1 0 64zM800 672H448a32 32 0 0 1 0-64h352a32 32 0 0 1 0 64zM304 160h-64a32 32 0 0 1 0-64h64a32 32 0 0 1 0 64zM304 416h-64a32 32 0 0 1 0-64h64a32 32 0 0 1 0 64zM304 672h-64a32 32 0 0 1 0-64h64a32 32 0 0 1 0 64zM864 800H160a96 96 0 0 1-96-96v-640a96 96 0 0 1 96-96h704a96 96 0 0 1 96 96V704a96 96 0 0 1-96 96z m32-736a32 32 0 0 0-32-32H160a32 32 0 0 0-32 32v160h672a32 32 0 0 1 0 64H128v192h672a32 32 0 0 1 0 64H128V704a32 32 0 0 0 32 32h704a32 32 0 0 0 32-32v-640z"  horiz-adv-x="1024" />

    
    <glyph glyph-name="gongnengdingyi1" unicode="&#60345;" d="M707.2 545.024l-198.496-115.264-195.072 111.712c-37.088 21.12-68.736-34.528-31.648-55.616l198.72-113.792v-256.736a32 32 0 0 1 64 0v258.016c0 1.056-0.512 1.952-0.608 3.008l194.752 113.088c37.088 21.056 5.44 76.704-31.648 55.584zM880.288 663.52L560.192 850.88a95.648 95.648 0 0 1-96.64 0L143.68 663.52A96.64 96.64 0 0 1 96 580.096v-397.664c0-34.784 18.624-66.88 48.736-84l320-181.92a95.52 95.52 0 0 1 94.496 0l320 181.92A96.576 96.576 0 0 1 928 182.43200000000002V580.096a96.64 96.64 0 0 1-47.712 83.424zM864 182.43200000000002c0-11.584-6.208-22.304-16.256-28l-320-181.92a31.776 31.776 0 0 0-31.488 0l-320 181.92A32.192 32.192 0 0 0 160 182.43200000000002V580.096c0 11.456 6.048 22.016 15.904 27.808l319.872 187.36a31.84 31.84 0 0 0 32.192 0l320.128-187.392c9.856-5.728 15.904-16.32 15.904-27.776v-397.664z"  horiz-adv-x="1024" />

    
    <glyph glyph-name="jishufuwu1" unicode="&#60366;" d="M328 384l81.6-108.8a32 32 0 0 0-51.2-38.4l-96 128a32 32 0 0 0 0 38.4l96 128a32 32 0 1 0 51.2-38.4L328 384zM710.4 275.2a32 32 0 0 1 51.2-38.4l96 128a32 32 0 0 1 0 38.4l-96 128a32 32 0 1 1-51.2-38.4l81.6-108.8-81.6-108.8zM559.232 249.056a32 32 0 0 0-62.464 13.888l64 288a32 32 0 0 0 62.464-13.888l-64-288zM874.56 156.096a32 32 0 1 0 41.984-48.32l-220.48-195.936a32 32 0 0 0-20.96-7.84H195.04C140.16-96 96-50.624 96 4.928V763.072C96 818.624 140.16 864 195.04 864h633.92C883.84 864 928 818.624 928 763.072v-134.976a32 32 0 0 0-64 0V763.072C864 783.68 848.096 800 828.96 800H195.04C175.904 800 160 783.68 160 763.072v-758.144C160-15.68 175.904-32 195.04-32h468.096l211.456 188.096zM928 132.8a32 32 0 0 0-64 0V224a32 32 0 0 0 64 0v-91.2z"  horiz-adv-x="1024" />

    
    <glyph glyph-name="yunyingzhongxin" unicode="&#60368;" d="M918.816 472.128a32 32 0 0 1-45.248 0.384c-23.552-23.168-45.92-41.6-67.296-55.552A95.296 95.296 0 0 1 768 442.112V672a32 32 0 0 1-64 0v-229.888a95.744 95.744 0 0 1-50.272-41.344c-4.544 2.56-9.184 4.672-13.632 7.84a643.936 643.936 0 0 0-74.016 61.824 1464.672 1464.672 0 0 0-14.88 14.4l-14.176 13.888c-11.456 11.168-19.712 18.88-28.032 26.048-20.8 17.952-41.056 30.72-63.104 39.136a95.904 95.904 0 0 1-189.728-18.368c-32.256-17.664-62.016-42.72-88.928-75.584a32 32 0 0 1 49.536-40.512c19.04 23.296 39.328 41.248 60.8 54.624a95.68 95.68 0 0 1 42.432-30.176V224a32 32 0 0 1 64 0v229.888a95.52 95.52 0 0 1 51.712 44.032c10.336-5.472 20.544-12.16 31.488-21.6 7.136-6.144 14.56-13.088 25.152-23.424l14.08-13.792c5.984-5.856 10.688-10.432 15.456-14.976 27.136-25.92 51.744-46.816 81.088-67.68 12.672-9.024 25.632-16.224 38.784-21.92A95.904 95.904 0 0 1 832 352c0 1.92-0.448 3.712-0.576 5.6 28.544 17.312 57.6 40.352 87.008 69.28a32 32 0 0 1 0.384 45.248zM960 629.792V736a96 96 0 0 1-96 96H160a96 96 0 0 1-96-96v-576a96 96 0 0 1 96-96h320v-64H256a32 32 0 0 1 0-64h512a32 32 0 0 1 0 64h-224v64h320a96 96 0 0 1 96 96v87.008a32 32 0 0 1-64 0V160a32 32 0 0 0-32-32H160a32 32 0 0 0-32 32V736a32 32 0 0 0 32 32h704a32 32 0 0 0 32-32v-106.208a32 32 0 0 1 64 0z"  horiz-adv-x="1024" />

    
    <glyph glyph-name="yunyingguanli" unicode="&#60369;" d="M892.224 778.976c-83.936 83.936-231.648 81.12-387.616 3.84-155.936 77.28-303.68 80.096-387.616-3.84-69.76-69.76-79.488-183.552-36.64-309.344a95.776 95.776 0 0 1 12.992-122.528c-55.936-136.896-53.472-266.176 23.68-343.328 83.936-83.936 231.712-81.152 387.776-3.776 152.8-75.68 302.016-81.632 387.424 3.776 85.44 85.44 79.424 234.72 3.68 387.584 75.744 152.896 81.76 302.176-3.68 387.616z m-45.248-729.952c-96.416-96.416-332.64-29.408-523.36 161.344a31.968 31.968 0 1 1-45.248-45.248 913.056 913.056 0 0 1 157.376-126.304c-117.248-47.904-219.104-44.128-273.472 10.24-55.776 55.776-56.544 158.368-10.656 271.808 2.816-0.256 5.504-0.864 8.384-0.864a96 96 0 0 1 96 96c0 21.024-6.944 40.288-18.4 56.096a870.592 870.592 0 0 0 86.016 100.288 31.968 31.968 0 1 1-45.248 45.248 933.6 933.6 0 0 1-93.472-109.344A92.928 92.928 0 0 1 160 512a95.68 95.68 0 0 1-24.736-3.616c-28.704 96.448-19.776 178.56 27.008 225.344 62.368 62.368 187.264 58.176 326.112-14.24a31.008 31.008 0 0 1 16.544-3.04 31.104 31.104 0 0 1 16.032 3.104c138.816 72.352 263.648 76.544 326.016 14.176 56-56 56.544-159.2 10.048-273.216a879.36 879.36 0 0 1-67.584 92.48c6.528 11.584 10.56 24.768 10.56 39.008a80 80 0 1 1-80-80c6.368 0 12.48 0.928 18.4 2.336a795.968 795.968 0 0 0 85.408-122.944c-31.52-56.672-73.984-114.08-126.176-168.352-3.2 0.384-6.336 0.96-9.632 0.96a80 80 0 1 1 65.792-34.624 901.056 901.056 0 0 1 103.232 132.864c46.464-113.984 45.952-217.216-10.048-273.216zM512 512a128 128 0 1 1 0-256 128 128 0 0 1 0 256z m0-192a64 64 0 1 0 0.032 128.032A64 64 0 0 0 512 320z"  horiz-adv-x="1024" />

    
    <glyph glyph-name="zuzhixiaxia" unicode="&#60376;" d="M928 320H608a32 32 0 0 1-32-32v-128H288v288h128a32 32 0 0 1 32 32V800a32 32 0 0 1-32 32H96a32 32 0 0 1-32-32v-320a32 32 0 0 1 32-32h128v-320a32 32 0 0 1 32-32h320v-128a32 32 0 0 1 32-32h320a32 32 0 0 1 32 32V288a32 32 0 0 1-32 32zM128 512V768h256v-256H128z m768-512h-256v256h256v-256z"  horiz-adv-x="1024" />

    
    <glyph glyph-name="zuzhizhankai" unicode="&#60377;" d="M832 96H256a32 32 0 0 0-32 32V704a32 32 0 0 0 64 0v-544h544a32 32 0 1 0 0-64z"  horiz-adv-x="1024" />

    
    <glyph glyph-name="zuzhiqunzu" unicode="&#60378;" d="M960 192h-63.616v167.392a32 32 0 0 1-32 32H544V480h160a32 32 0 0 1 32 32V800a32 32 0 0 1-32 32H320a32 32 0 0 1-32-32v-288a32 32 0 0 1 32-32h160v-88.608H161.984a32 32 0 0 1-32-31.968L129.792 192H64a32 32 0 0 1-32-32v-192a32 32 0 0 1 32-32h192a32 32 0 0 1 32 32v192a32 32 0 0 1-32 32H193.792l0.16 135.392H480V192h-64a32 32 0 0 1-32-32v-192a32 32 0 0 1 32-32h192a32 32 0 0 1 32 32v192a32 32 0 0 1-32 32h-64v135.392h288.384V192H768a32 32 0 0 1-32-32v-192a32 32 0 0 1 32-32h192a32 32 0 0 1 32 32v192a32 32 0 0 1-32 32zM352 768h320v-224H352V768zM224 0H96v128h128v-128z m352 0h-128v128h128v-128z m352 0h-128v128h128v-128z"  horiz-adv-x="1024" />

    
    <glyph glyph-name="dakai" unicode="&#60383;" d="M275.84 736H124.192l1.824-580.096a32 32 0 0 0-64 0L60.16 736a64 64 0 0 0 64 64h177.92l97.28-96h498.272a32 32 0 1 0 0-64H373.152l-97.28 96zM127.52 160.384a32 32 0 0 0-63.04 10.944l54.624 314.144C127.904 536.064 174.784 576 225.76 576h668.864c55.36 0 93.92-46.72 84.384-101.472l-72.32-416C897.824 7.936 850.976-32 800-32H160a32 32 0 0 0 0 64h640c19.712 0 40.096 17.376 43.616 37.472l72.32 416c2.784 15.904-5.984 26.528-21.312 26.528H225.76c-19.68 0-40.096-17.376-43.584-37.472l-54.656-314.144z"  horiz-adv-x="1024" />

    
    <glyph glyph-name="yingwen" unicode="&#60384;" d="M229.248 192V558.496h271.744v-61.984h-197.76v-81.28h184v-61.76h-184v-99.712h204.768V192h-278.72z m550.496 0h-70.24v135.488c0 28.672-1.504 47.232-4.48 55.648a39.04 39.04 0 0 1-14.656 19.616 41.792 41.792 0 0 1-24.384 7.008c-12.16 0-23.04-3.328-32.736-10.016-9.664-6.656-16.32-15.488-19.872-26.496-3.584-11.008-5.376-31.36-5.376-60.992V192h-70.24v265.504h65.248v-39.008c23.168 30.016 52.32 44.992 87.488 44.992 15.52 0 29.664-2.784 42.496-8.352 12.832-5.6 22.56-12.704 29.12-21.376 6.592-8.672 11.2-18.496 13.76-29.504 2.56-11.008 3.872-26.752 3.872-47.264V192zM160 752a32 32 0 0 1-32-32V32a32 32 0 0 1 32-32h688a32 32 0 0 1 32 32V720a32 32 0 0 1-32 32H160z m0 64h688a96 96 0 0 0 96-96V32a96 96 0 0 0-96-96H160a96 96 0 0 0-96 96V720a96 96 0 0 0 96 96z"  horiz-adv-x="1024" />

    
    <glyph glyph-name="zhongwen" unicode="&#60386;" d="M160 752a32 32 0 0 1-32-32V32a32 32 0 0 1 32-32h688a32 32 0 0 1 32 32V720a32 32 0 0 1-32 32H160z m0 64h688a96 96 0 0 0 96-96V32a96 96 0 0 0-96-96H160a96 96 0 0 0-96 96V720a96 96 0 0 0 96 96zM482.176 633.728h59.616v-94.4h196v-239.072h-196v-184.416h-59.616v184.416H286.72v239.04h195.456V633.76z m-137.504-277.152h137.504v126.4H344.64v-126.4z m197.12 0h138.048v126.4H541.76v-126.4z"  horiz-adv-x="1024" />

    
    <glyph glyph-name="miwen" unicode="&#60387;" d="M562.39328 602.304a32 32 0 0 0-14.336-62.4 160 160 0 0 1-185.056-214.336 32 32 0 1 0-59.584-23.328 224 224 0 0 0 258.976 300.064z m-100.256-436.704a32 32 0 0 0 14.208 62.4 160 160 0 0 1 188.224 204.48 32 32 0 1 0 60.992 19.328 224 224 0 0 0-263.456-286.208zM213.46528 219.904a32 32 0 1 0-42.336-48C132.05728 206.4 77.49728 270.432 6.45728 364.736a32 32 0 0 0-0.992 37.12C154.16928 623.296 323.22528 736 512.02528 736c52.704 0 104.096-8.832 154.016-26.496a32 32 0 0 0-21.344-60.352A394.752 394.752 0 0 1 512.02528 672c-159.584 0-306.24-94.464-440.576-287.04 61.824-81.056 109.44-136.288 142.048-165.056z m599.808 325.76a32 32 0 0 0 42.592 47.808c38.368-34.24 91.968-97.376 161.728-190.24a32 32 0 0 0 0.992-37.088C869.88128 144.704 700.82528 32 512.02528 32c-37.824 0-74.944 4.544-111.36 13.664a32 32 0 0 0 15.488 62.08c31.36-7.84 63.264-11.744 95.872-11.744 159.584 0 306.24 94.464 440.576 287.04-60.64 79.712-107.328 134.112-139.328 162.656zM823.92928 773.088a32 32 0 0 0 48.192-42.176l-672-768a32 32 0 0 0-48.192 42.176l672 768z"  horiz-adv-x="1024" />

    
    <glyph glyph-name="xianhao" unicode="&#60388;" d="M434.752 416L195.2 655.52A32 32 0 0 0 240.48 700.8L480 461.248V800a32 32 0 0 0 64 0v-338.752L783.52 700.8A32 32 0 1 0 828.8 655.52L589.248 416H928a32 32 0 0 0 0-64H589.248l239.52-239.52a32 32 0 1 0-45.248-45.248L544 306.752V-32a32 32 0 0 0-64 0V306.752L240.48 67.2A32 32 0 0 0 195.2 112.48L434.752 352H96a32 32 0 0 0 0 64h338.752z"  horiz-adv-x="1024" />

    
    <glyph glyph-name="kongxinduigou" unicode="&#60389;" d="M512-96C246.912-96 32 118.912 32 384 32 649.088 246.912 864 512 864c265.088 0 480-214.912 480-480 0-265.088-214.912-480-480-480z m0 64c229.76 0 416 186.24 416 416S741.76 800 512 800 96 613.76 96 384s186.24-416 416-416zM741.216 552a32 32 0 0 0 46.816-43.616l-315.296-338.208a32 32 0 0 0-43.968-2.688l-193.344 162.368a32 32 0 1 0 41.152 48.992l170.08-142.816 294.56 316z"  horiz-adv-x="1024" />

    
    <glyph glyph-name="huixingzhen" unicode="&#60390;" d="M770.784 782.72a293.12 293.12 0 0 1-410.496-57.696L235.712 559.68a31.968 31.968 0 1 1 51.104-38.496l124.576 165.344a229.12 229.12 0 1 0 365.952-275.776l-255.36-338.88a163.84 163.84 0 0 0-261.696 197.184l255.36 338.88a98.528 98.528 0 1 0 157.408-118.624l-216.064-286.752a33.28 33.28 0 1 0-53.184 40.064c86.176 115.616 141.024 189.024 164.544 220.256a32 32 0 1 1-51.136 38.496c-23.616-31.36-78.496-104.8-164.64-220.384a97.28 97.28 0 1 1 155.456-116.96l218.912 290.496c0.992 1.344 1.312 2.912 2.08 4.32 47.36 71.104 32.224 167.456-36.896 219.552a162.56 162.56 0 0 1-227.648-32l-255.36-338.88a227.84 227.84 0 0 1 363.904-274.24l255.36 338.88a293.056 293.056 0 0 1-57.6 410.56z"  horiz-adv-x="1024" />

    
    <glyph glyph-name="duigou" unicode="&#60391;" d="M892.064 634.112a31.936 31.936 0 0 1-45.216-1.472L421.664 178.752l-220.448 185.216a32 32 0 1 1-41.152-48.992l243.648-204.704a31.872 31.872 0 0 1 20.576-7.488 31.808 31.808 0 0 1 23.36 10.112L893.536 588.864a32 32 0 0 1-1.472 45.248z"  horiz-adv-x="1024" />

    
    <glyph glyph-name="stack-overflow" unicode="&#59760;" d="M715.4 296l-362.4 169 33.4 73 362.6-169.4-33.6-72.6z m96 152L504.4 704.6l-51-61.6 307-256.6 51 61.6z m79.2 63.4L652 832l-64-48 238.6-320.6 64 48zM709.4 274L318 356.6 301.6 278l391.4-82 16.4 78z m63.2-258H213.4V256h-80v-320h719V256h-80v-240z m-79.6 160h-400v-79.4h400V176z"  horiz-adv-x="1024" />

    
    <glyph glyph-name="xiayibu" unicode="&#60399;" d="M512-96C246.912-96 32 118.912 32 384 32 649.088 246.912 864 512 864c265.088 0 480-214.912 480-480 0-265.088-214.912-480-480-480z m0 64c229.76 0 416 186.24 416 416S741.76 800 512 800 96 613.76 96 384s186.24-416 416-416zM688 416a32 32 0 0 0 0-64h-416a32 32 0 0 0 0 64h416zM707.072 384l-151.36 170.784a32 32 0 1 0 47.872 42.432l170.208-192a32 32 0 0 0 0-42.432l-170.24-192a32 32 0 1 0-47.872 42.432L707.072 384z"  horiz-adv-x="1024" />

    
    <glyph glyph-name="shangyibu" unicode="&#60400;" d="M512-96C246.912-96 32 118.912 32 384 32 649.088 246.912 864 512 864c265.088 0 480-214.912 480-480 0-265.088-214.912-480-480-480z m0 64c229.76 0 416 186.24 416 416S741.76 800 512 800 96 613.76 96 384s186.24-416 416-416zM336 416a32 32 0 0 1 0-64h416a32 32 0 0 1 0 64h-416zM316.928 384l151.36 170.784a32 32 0 1 1-47.872 42.432l-170.208-192a32 32 0 0 1 0-42.432l170.24-192a32 32 0 1 1 47.872 42.432L316.928 384z"  horiz-adv-x="1024" />

    
    <glyph glyph-name="kongjianxuanzhong" unicode="&#60401;" d="M96 832h832a32 32 0 0 0 32-32v-832a32 32 0 0 0-32-32H96a32 32 0 0 0-32 32V800a32 32 0 0 0 32 32z m648.64-244.032l-310.368-331.296-157.696 132.48a32 32 0 1 1-41.152-48.992l180.896-152a32 32 0 0 1 43.936 2.624L791.36 544.224a32 32 0 1 1-46.72 43.744z"  horiz-adv-x="1024" />

    
    <glyph glyph-name="kongjianweixuan" unicode="&#60402;" d="M896 832H128c-35.296 0-64-28.704-64-64v-768c0-35.296 28.704-64 64-64h768c35.296 0 64 28.704 64 64V768c0 35.296-28.704 64-64 64zM128 0V768h768l0.064-768H128z"  horiz-adv-x="1024" />

    
    <glyph glyph-name="kongjianyixuan" unicode="&#60403;" d="M896 832H128c-35.296 0-64-28.704-64-64v-768c0-35.296 28.704-64 64-64h768c35.296 0 64 28.704 64 64V768c0 35.296-28.704 64-64 64zM128 0V768h768l0.064-768H128zM744.64 587.968l-310.368-331.296-157.696 132.48a32 32 0 0 1-41.184-49.024l180.896-152a32 32 0 0 1 43.936 2.624L791.36 544.224a32 32 0 1 1-46.72 43.744z"  horiz-adv-x="1024" />

    
    <glyph glyph-name="-diangan" unicode="&#60411;" d="M960 576H616.064l-4 128h94.912c6.624-18.592 24.192-32 45.056-32s38.464 13.408 45.056 32H896V768h-285.984l-3.008 96h-158.016l-3.008-96H128v-64h98.944c6.592-18.592 24.192-32 45.056-32s38.464 13.408 45.056 32h126.912l-4.032-128H64v-64h98.944c6.624-18.592 24.192-32 45.056-32s38.464 13.408 45.056 32h184.864l-19.104-608h218.336l-19.104 608h152.864c6.624-18.592 24.192-32 45.056-32s38.464 13.408 45.056 32H960v64zM484.864-32l26.144 832h33.984l26.144-832h-86.272z"  horiz-adv-x="1024" />

    
    <glyph glyph-name="rongxuejirongjiechi" unicode="&#60412;" d="M32 768v-768h960V768H32z m896-704H96V704h832v-640zM240 464m-48 0a48 48 0 1 1 96 0 48 48 0 1 1-96 0ZM720 208m-48 0a48 48 0 1 1 96 0 48 48 0 1 1-96 0ZM528 560m-48 0a48 48 0 1 1 96 0 48 48 0 1 1-96 0ZM749.248 453.504l32 32 32-32 45.248 45.248-32 32 32 32L813.248 608l-32-32-32 32L704 562.752l32-32-32-32zM365.248 165.504l32 32 32-32 45.248 45.248-32 32 32 32L429.248 320l-32-32-32 32L320 274.752l32-32-32-32z"  horiz-adv-x="1024" />

    
    <glyph glyph-name="lubiantingchechang" unicode="&#60413;" d="M896 480c0 212.064-171.936 384-384 384S128 692.064 128 480c0-178.88 122.464-328.736 288-371.424V-32h-96v-64h384v64h-96v140.576c165.536 42.688 288 192.544 288 371.424zM192 480C192 656.736 335.264 800 512 800s320-143.264 320-320-143.264-320-320-320S192 303.264 192 480z m352-512h-64v129.632c10.592-0.896 21.184-1.632 32-1.632s21.408 0.736 32 1.632V-32zM736 544a160 160 0 0 1-160 160h-192v-448h64v128h128a160 160 0 0 1 160 160z m-288 96h128a96 96 0 1 0 0-192h-128V640z"  horiz-adv-x="1024" />

    
    <glyph glyph-name="-lumingpai" unicode="&#60414;" d="M608 480h205.312L960 608l-146.688 128H608V864h-192v-128H96v-256h320v-64H210.688L64 288l146.688-128H416v-256h192v256h320v256H608v64zM480 800h64v-64h-64V800zM160 544V672h629.344l73.344-64-73.344-64H160z m320-64h64v-64h-64v64z m64-512h-64v192h64v-192z m320 384v-128H234.656l-73.344 64 73.344 64H864z"  horiz-adv-x="1024" />

    
    <glyph glyph-name="jietouzuoyi" unicode="&#60415;" d="M955.616 194.176l-55.328 180.256H403.488L234.496 768H48.512l232.384-573.824h80.992L288-64h69.408l34.4 128h368.352l34.4-128H864l-73.888 258.176h165.504zM143.488 704H192.32l168.992-393.568h491.68l16.032-52.256H324.032L143.488 704z m599.488-576H409.024l17.792 66.176h298.4L742.976 128z"  horiz-adv-x="1024" />

    
    <glyph glyph-name="-zhongdaweixian" unicode="&#60416;" d="M987.008 49.184l-448 704a32.032 32.032 0 0 1-54.016 0l-448-704A32 32 0 0 1 64 0h896a32 32 0 0 1 27.008 49.184zM122.304 64L512 676.384 901.696 64H122.304zM495.808 567.104l-268.8-422.4a19.2 19.2 0 0 1 16.192-29.504h537.6a19.2 19.2 0 0 1 16.192 29.504l-268.8 422.4a19.2 19.2 0 0 1-32.384 0zM544 160h-64v64h64v-64z m0 288v-192h-64v192h64z"  horiz-adv-x="1024" />

    
    <glyph glyph-name="-jiaotongbiaozhipai" unicode="&#60417;" d="M384 512h256v-64h-256zM544 52.416h-64V-32h-160v-64h384v64h-160zM512 864C299.936 864 128 692.064 128 480s171.936-384 384-384 384 171.936 384 384S724.064 864 512 864z m0-704c-176.736 0-320 143.264-320 320S335.264 800 512 800s320-143.264 320-320-143.264-320-320-320z"  horiz-adv-x="1024" />

    
    <glyph glyph-name="gongcezhishipai" unicode="&#60418;" d="M462.208 451.552L437.344 576h-49.696l-24.992-124.448L337.76 576H288l49.792-224h49.76l24.896 141.024 24.896-141.024h49.76l42.08 224h-49.664zM669.664 412.992c-5.952-7.2-14.752-10.784-26.4-10.784-12 0-21.312 4.448-27.968 13.376-6.624 8.896-9.952 25.376-9.952 49.376 0 19.392 2.784 33.632 8.32 42.656 7.328 12.224 17.92 18.304 31.712 18.304 6.08 0 11.616-1.376 16.544-4.128 4.928-2.752 9.088-6.688 12.512-11.808 2.048-3.04 4.032-7.872 5.92-14.464l53.76 13.152c-6.912 22.848-17.44 39.776-31.648 50.784-14.208 11.04-33.696 16.544-58.528 16.544-31.712 0-56.256-9.632-73.568-28.864-17.344-19.232-26.016-46.784-26.016-82.624 0-26.88 4.928-48.928 14.784-66.144 9.856-17.216 21.568-29.28 35.136-36.096 13.568-6.848 31.072-10.272 52.48-10.272 17.664 0 32.192 2.816 43.616 8.416a75.2 75.2 0 0 1 28.704 24.96c7.712 11.008 13.344 24.736 16.928 41.184l-53.344 17.728c-2.688-13.696-7.008-24.128-12.992-31.296zM544 52.416h-64V-32h-160v-64h384v64h-160zM512 864C299.936 864 128 692.064 128 480s171.936-384 384-384 384 171.936 384 384S724.064 864 512 864z m0-704c-176.736 0-320 143.264-320 320S335.264 800 512 800s320-143.264 320-320-143.264-320-320-320z"  horiz-adv-x="1024" />

    
    <glyph glyph-name="fangkuai" unicode="&#60422;" d="M896-64H128c-35.296 0-64 28.704-64 64V768c0 35.296 28.704 64 64 64h768c35.296 0 64-28.704 64-64v-768c0-35.296-28.704-64-64-64zM128 768v-768h768.064L896 768H128zM544 416h208a32 32 0 0 0 0-64H544v-208a32 32 0 0 0-64 0V352H272a32 32 0 0 0 0 64H480V624a32 32 0 0 0 64 0V416z"  horiz-adv-x="1024" />

    
    <glyph glyph-name="fangkuai-" unicode="&#60423;" d="M896 832H128c-35.296 0-64-28.704-64-64v-768c0-35.296 28.704-64 64-64h768c35.296 0 64 28.704 64 64V768c0 35.296-28.704 64-64 64zM128 0V768h768l0.064-768H128zM752 416h-480a32 32 0 0 1 0-64h480a32 32 0 0 1 0 64z"  horiz-adv-x="1024" />

    
    <glyph glyph-name="shuaxin" unicode="&#60424;" d="M960 480V704l-73.056-73.056a447.712 447.712 0 0 1-373.6 201.088C265.92 832.032 65.312 631.456 65.312 384S265.92-64.032 513.344-64.032a448.064 448.064 0 0 1 415.232 279.488 38.368 38.368 0 1 1-71.136 28.896 371.36 371.36 0 0 0-344.096-231.584C308.32 12.768 142.112 178.976 142.112 384S308.32 755.232 513.344 755.232c132.448 0 251.936-70.08 318.016-179.84L736 480h224z"  horiz-adv-x="1024" />

    
    <glyph glyph-name="baocun" unicode="&#60425;" d="M925.248 539.072l-258.176 258.176a64 64 0 0 1-45.248 18.752H144a64 64 0 0 1-64-64v-736a64 64 0 0 1 64-64h736a64 64 0 0 1 64 64V493.824a64 64 0 0 1-18.752 45.248zM288 752h192V640H288V752z m448-736H288V160h448v-144z m144 0H800V192a32 32 0 0 1-32 32H256a32 32 0 0 1-32-32v-176H144v736H224V608a32 32 0 0 1 32-32h256a32 32 0 0 1 32 32V752h77.824l258.176-258.176V16z"  horiz-adv-x="1024" />

    
    <glyph glyph-name="fabu" unicode="&#60426;" d="M864 768h-56.64a32 32 0 0 1 0-64H864a32 32 0 0 0 32-32v-640a32 32 0 0 0-32-32H160a32 32 0 0 0-32 32V672a32 32 0 0 0 32 32h62.272a32 32 0 0 1 0 64H160a96 96 0 0 1-96-96v-640a96 96 0 0 1 96-96h704a96 96 0 0 1 96 96V672a96 96 0 0 1-96 96zM341.216 587.68L480 710.688V208a32 32 0 0 1 64 0V710.688l138.784-123.008a32.032 32.032 0 0 1 42.464 47.904l-192 170.208a32 32 0 0 1-42.464 0l-192-170.208a32 32 0 1 1 42.432-47.904z"  horiz-adv-x="1024" />

    
    <glyph glyph-name="xiayibu1" unicode="&#60427;" d="M860.992 337.088C627.904 578.464 352.384 612.352 44.8 436.704a38.4 38.4 0 1 1 38.08-66.688c278.432 159.008 516.896 129.408 726.08-89.696L640 96h352V480l-131.008-142.912z"  horiz-adv-x="1024" />

    
    <glyph glyph-name="shangyibu1" unicode="&#60428;" d="M995.648 436.704C684.448 614.432 406.08 577.344 171.232 328.096L32 480v-384h352l-160.736 175.328c211.168 227.072 452.192 259.776 734.304 98.688a38.4 38.4 0 0 1 38.08 66.688z"  horiz-adv-x="1024" />

    
    <glyph glyph-name="xiangxiazhanhang" unicode="&#60429;" d="M493.504 337.856a31.904 31.904 0 0 1 45.28 0l308.352 308.352a31.968 31.968 0 1 1-45.248 45.248l-285.728-285.728-294.176 294.144a31.968 31.968 0 1 1-45.248-45.248l316.768-316.768zM801.888 435.424l-285.728-285.728-294.144 294.144a31.968 31.968 0 1 1-45.248-45.248l316.768-316.768a31.904 31.904 0 0 1 45.28 0l308.352 308.352a32 32 0 1 1-45.28 45.248z"  horiz-adv-x="1024" />

    
    <glyph glyph-name="xiangshangzhanhang" unicode="&#60430;" d="M199.36 323.232a31.904 31.904 0 0 1 22.624 9.376l294.144 294.144 285.728-285.728a31.968 31.968 0 1 1 45.248 45.248l-308.352 308.352a32 32 0 0 1-45.28 0l-316.768-316.768a31.968 31.968 0 0 1 22.656-54.624zM538.784 438.624a32 32 0 0 1-45.28 0l-316.768-316.768a31.968 31.968 0 1 1 45.248-45.248l294.144 294.144 285.728-285.728a31.968 31.968 0 1 1 45.248 45.248l-308.32 308.352z"  horiz-adv-x="1024" />

    
    <glyph glyph-name="tupianjiazaishibai" unicode="&#60431;" d="M776 568m-72 0a72 72 0 1 1 144 0 72 72 0 1 1-144 0ZM999.904 779.392a32 32 0 0 1-21.952 10.912l-456.192 31.904a31.552 31.552 0 0 1-27.2-11.904l-92.192-114.848a32 32 0 0 1 0.672-40.896l146.144-169.952-147.456-194.656 36.48 173.376a32 32 0 0 1-11.136 31.424L235.616 650.496l79.616 125.696a32 32 0 0 1-29.28 49.024l-240.192-16.768a32 32 0 0 1-29.696-34.176l55.808-798.016a32.064 32.064 0 0 1 34.304-29.696l176.512 13.184c17.632 1.312 30.848 16.672 29.504 34.272s-16.576 31.04-34.304 29.536l-144.448-10.784-6.432 92.512 125.312 12.576a32 32 0 0 1 28.672 35.04 32.16 32.16 0 0 1-35.04 28.672l-123.392-12.416L82.144 746.816l145.152 10.144-60.96-96.224a32 32 0 0 1 6.848-41.952l198.4-161.344-58.752-279.296a30.912 30.912 0 0 1 0.736-14.752 31.68 31.68 0 0 1 1.408-11.04l51.52-154.56a31.968 31.968 0 0 1 27.456-21.76l523.104-47.552a32.064 32.064 0 0 1 34.848 29.632L1007.68 756.16a32.064 32.064 0 0 1-7.776 23.232z m-98.912-630.848l-412.576 39.648a31.52 31.52 0 0 1-34.912-28.768 32 32 0 0 1 28.8-34.912l414.24-39.808-6.272-89.536-469.728 42.72-39.584 118.72 234.816 310.016a31.936 31.936 0 0 1-1.248 40.192L468.896 676.16l65.088 81.056 407.584-28.48-40.576-580.192z"  horiz-adv-x="1024" />

    
    <glyph glyph-name="fuwudiqiu" unicode="&#60432;" d="M601.024 796.416a32 32 0 0 1-8.064-63.488 380.384 380.384 0 0 0 175.68-69.952c-115.744-26.336-150.944-106.048-158.336-175.008-10.72-99.68 60.224-151.968 107.168-186.56 16.48-12.16 41.376-30.528 42.528-39.104 0.16-1.248-0.992-5.408-6.56-12.416-61.056-76.96-83.808-140.832-67.552-189.952 4.96-14.912 15.296-32.896 36.288-47.84A381.856 381.856 0 0 0 544-32c-3.008 0-5.952 0.352-8.96 0.416 40.096 67.392 25.728 118.304 3.424 151.104-54.08 79.488-134.912 104.128-211.04 64.192-5.28-2.848-9.6-1.696-34.4 21.632-24.448 23.04-63.232 58.944-120.032 48.32-5.024 19.2-8.992 38.88-11.04 59.2a32.128 32.128 0 0 1-35.072 28.64c-17.568-1.792-30.4-17.472-28.64-35.072A446.496 446.496 0 0 1 544-96c247.04 0 448 200.96 448 448 0 225.024-168.064 416.064-390.976 444.416zM195.072 191.68c18.368-0.704 33.12-13.216 54.08-32.928 24-22.624 60.352-56.672 108-31.712 63.328 33.28 107.616-12.992 128.384-43.488 8.128-11.936 28.896-42.592-22.432-106.752a381.856 381.856 0 0 0-268.032 214.88z m589.344-138.656c-20.992 6.016-33.824 15.072-37.824 27.072-8.544 25.76 12.736 74.368 56.928 129.984 15.872 20 22.56 40.416 19.872 60.672-4.736 35.52-35.456 58.176-68 82.144-43.392 32-88.288 65.056-81.504 128.192 5.536 51.264 28.288 118.336 156.704 126.112A383.232 383.232 0 0 0 928 352c0-120.768-56.16-228.544-143.584-298.976zM266.464 296.32a32 32 0 0 1 43.072 0C456.544 429.984 528 537.184 528 624 528 756.352 420.352 864 288 864S48 756.352 48 624c0-86.816 71.456-194.016 218.464-327.68zM288 800c97.056 0 176-78.944 176-176 0-43.872-31.232-124.128-176-260.416C143.232 499.872 112 580.128 112 624 112 721.056 190.944 800 288 800zM288 624m-80 0a80 80 0 1 1 160 0 80 80 0 1 1-160 0Z"  horiz-adv-x="1024" />

    
    <glyph glyph-name="suoxiao" unicode="&#60435;" d="M919.264-9.984l-138.912 138.912C851.808 203.68 896 304.672 896 416c0 229.376-186.624 416-416 416S64 645.376 64 416s186.624-416 416-416c95.008 0 182.432 32.384 252.544 86.208l141.44-141.44a31.904 31.904 0 0 1 45.248 0 32 32 0 0 1 0.032 45.248zM128 416C128 610.08 285.92 768 480 768s352-157.92 352-352-157.92-352-352-352S128 221.92 128 416zM625.792 448H336a32 32 0 0 1 0-64h289.792a32 32 0 1 1 0 64z"  horiz-adv-x="1024" />

    
    <glyph glyph-name="fangda" unicode="&#60436;" d="M919.264-9.984l-138.912 138.912C851.808 203.68 896 304.672 896 416c0 229.376-186.624 416-416 416S64 645.376 64 416s186.624-416 416-416c95.008 0 182.432 32.384 252.544 86.208l141.44-141.44a31.904 31.904 0 0 1 45.248 0 32 32 0 0 1 0.032 45.248zM128 416C128 610.08 285.92 768 480 768s352-157.92 352-352-157.92-352-352-352S128 221.92 128 416zM625.792 448H512v112a32 32 0 0 1-64 0V448h-112a32 32 0 0 1 0-64H448v-112a32 32 0 1 1 64 0V384h113.792a32 32 0 1 1 0 64z"  horiz-adv-x="1024" />

    
    <glyph glyph-name="huanyuanhuabu" unicode="&#60437;" d="M912 848h-800c-35.296 0-64-28.704-64-64v-800c0-35.296 28.704-64 64-64h800c35.296 0 64 28.704 64 64v800c0 35.296-28.704 64-64 64z m-800-864v800h800l0.064-800H112zM368.896 704a32 32 0 0 1-32-32v-105.888H224a32 32 0 0 1 0-64h144.896a32 32 0 0 1 32 32V672a32 32 0 0 1-32 32zM784.864 566.112H672V672a32 32 0 1 1-64 0v-137.888a32 32 0 0 1 32-32h144.864a32 32 0 1 1 0 64zM368.896 256H224a32 32 0 1 1 0-64h112.896v-105.92a32 32 0 1 1 64 0V224a32 32 0 0 1-32 32zM784.864 256H640a32 32 0 0 1-32-32v-137.92a32 32 0 1 1 64 0V192h112.864a32 32 0 1 1 0 64z"  horiz-adv-x="1024" />

    
    <glyph glyph-name="quanping" unicode="&#60438;" d="M368.896 704H224a32 32 0 0 1-32-32v-137.888a32 32 0 0 1 64 0V640h112.896a32 32 0 0 1 0 64zM784.864 704H640a32 32 0 1 1 0-64h112.864v-105.888a32 32 0 1 1 64 0V672a32 32 0 0 1-32 32zM368.896 118.08H256V224a32 32 0 1 1-64 0v-137.92a32 32 0 0 1 32-32h144.896a32 32 0 1 1 0 64zM784.864 256a32 32 0 0 1-32-32v-105.92H640a32 32 0 1 1 0-64h144.864a32 32 0 0 1 32 32V224a32 32 0 0 1-32 32zM912 848h-800c-35.296 0-64-28.704-64-64v-800c0-35.296 28.704-64 64-64h800c35.296 0 64 28.704 64 64v800c0 35.296-28.704 64-64 64z m-800-864v800h800l0.064-800H112z"  horiz-adv-x="1024" />

    
    <glyph glyph-name="biaodanzujian-biaoge1" unicode="&#60439;" d="M960 304.576V527.04c0 0.288 0.16 0.512 0.16 0.768S960 528.32 960 528.576V704a32 32 0 0 1-32 32H96a32 32 0 0 1-32-32v-175.424c0-0.288-0.16-0.512-0.16-0.768s0.16-0.48 0.16-0.768v-222.464c0-0.288-0.16-0.512-0.16-0.768s0.16-0.48 0.16-0.768V32a32 32 0 0 1 32-32h832a32 32 0 0 1 32 32v271.04c0 0.288 0.16 0.512 0.16 0.768S960 304.32 960 304.576z m-560 31.232v160H608v-160h-208z m208-64V64h-208v207.808H608z m-480 224h208v-160H128v160z m544 0h224v-160h-224v160zM896 672v-112.192H128V672h768zM128 271.808h208V64H128v207.808zM672 64v207.808h224V64h-224z"  horiz-adv-x="1024" />

    
    <glyph glyph-name="APIshuchu" unicode="&#60440;" d="M512 256a32 32 0 0 1-32-32v-96a32 32 0 1 1 64 0v96a32 32 0 0 1-32 32zM333.312 578.112a12.8 12.8 0 0 1 9.056-3.744H480V352a32 32 0 1 1 64 0v222.368h139.904a12.8 12.8 0 0 1 9.056 21.856l-170.752 170.752a12.8 12.8 0 0 1-18.112 0l-170.752-170.752a12.8 12.8 0 0 1-0.032-18.112zM892.384 709.504l-174.176 86.08a32.032 32.032 0 0 1-28.384-57.376L864 652.128v-502.848l-352-147.52-352 147.52V652.128l174.176 86.08a32 32 0 0 1-28.32 57.376l-174.208-86.08A63.648 63.648 0 0 1 96 652.128v-502.848c0-25.888 15.424-49.056 39.264-59.008l364.384-152.704a31.936 31.936 0 0 1 24.768 0l364.352 152.672A63.84 63.84 0 0 1 928 149.28V652.128a63.68 63.68 0 0 1-35.616 57.376z"  horiz-adv-x="1024" />

    
    <glyph glyph-name="APIjieru" unicode="&#60441;" d="M512 640a32 32 0 0 1 32 32V768.96a32 32 0 1 1-64 0V672a32 32 0 0 1 32-32zM342.368 279.968a12.8 12.8 0 0 1-9.056-21.856l170.752-170.752a12.8 12.8 0 0 1 18.112 0l170.752 170.752a12.8 12.8 0 0 1-9.056 21.856H544V544a32 32 0 1 1-64 0v-264.032h-137.632zM892.384 709.504l-174.176 86.08a32.032 32.032 0 0 1-28.384-57.376L864 652.128v-502.848l-352-147.52-352 147.52V652.128l174.176 86.08a32 32 0 0 1-28.32 57.376l-174.208-86.08A63.648 63.648 0 0 1 96 652.128v-502.848c0-25.888 15.424-49.056 39.264-59.008l364.384-152.704a31.936 31.936 0 0 1 24.768 0l364.352 152.672A63.84 63.84 0 0 1 928 149.28V652.128a63.68 63.68 0 0 1-35.616 57.376z"  horiz-adv-x="1024" />

    
    <glyph glyph-name="wenjianjia" unicode="&#60442;" d="M912 688H427.872l-50.368 94.176A63.936 63.936 0 0 1 321.056 816H112c-35.296 0-64-28.704-64-64v-736c0-35.296 28.704-64 64-64h800c35.296 0 64 28.704 64 64v608c0 35.296-28.704 64-64 64z m-800 64h209.056l68.448-128H912v-97.984c-0.416 0-0.8 0.128-1.216 0.128H113.248c-0.416 0-0.8-0.128-1.248-0.128V752z m0-736v96l1.248 350.144 798.752-1.216V112h0.064v-96H112z"  horiz-adv-x="1024" />

    
    <glyph glyph-name="DOC" unicode="&#60443;" d="M927.68 197.088c0 0.576 0.32 1.056 0.32 1.664V763.072C928 818.72 883.552 864 828.928 864H195.04C140.448 864 96 818.72 96 763.072v-758.144C96-50.72 140.448-96 195.04-96h480.032a31.872 31.872 0 0 1 20.96 7.84l153.856 133.632a32 32 0 1 1-41.92 48.32L704 3.488v119.552c0 20.384 15.712 36.96 35.072 36.96h157.632a32 32 0 0 1 32 32c-0.032 1.792-0.768 3.36-1.024 5.088zM640 123.072V-32H195.04C175.712-32 160-15.424 160 4.928V763.072C160 783.424 175.712 800 195.04 800h633.888C848.288 800 864 783.424 864 763.072V224h-124.928C684.448 224 640 178.72 640 123.072zM731.36 608h-5.216c-9.536 0-17.504-4.192-23.84-12.576-22.56-40.768-50.464-95.296-83.712-163.52l-70.272 141.376C539.968 596.448 528.384 608 513.632 608h-7.808c-10.112 0-18.656-5.056-25.6-15.168-36.736-69.408-64.032-123.04-81.984-160.928l-70.272 141.376C319.904 596.448 308.32 608 293.312 608h-6.944l-6.528-1.728c-15.872-8.096-23.84-17.632-23.84-28.64v-7.808l0.864-5.216c43.68-92.256 77.792-162.208 102.368-209.92 9.824-23.136 21.408-34.688 34.688-34.688h6.08c8.96 0 17.344 4.192 25.152 12.576l83.264 164.384h0.864c30.368-63.904 51.776-107.712 64.192-131.424 12.736-30.368 26.336-45.536 40.8-45.536h6.08c9.824 0 18.784 5.056 26.88 15.168l116.256 231.168v10.432l-0.864 3.456c-9.856 18.528-20.256 27.776-31.264 27.776z"  horiz-adv-x="1024" />

    
    <glyph glyph-name="BMP" unicode="&#60444;" d="M287.392 554.368H245.632v-32.608H281.28c13.344 2.048 20.032 8.256 20.032 18.656-2.72 9.312-7.36 13.952-13.92 13.952zM287.392 468.16H244.96v-31.904H286.72c9.728 3.392 14.592 8.48 14.592 15.264v2.72c-2.272 9.28-6.912 13.92-13.92 13.92zM795.008 554.368l-13.92 0.672h-17.312v-52.256h29.184c9.728 0 17.184 6.784 22.4 20.352v8.48c0 9.728-6.784 17.312-20.352 22.752zM928 256h32V736h-32v27.072C928 818.72 883.552 864 828.928 864H195.04C140.448 864 96 818.72 96 763.072V736H64v-480h32v-251.072C96-50.72 140.448-96 195.04-96h480.032a31.872 31.872 0 0 1 20.96 7.84l153.856 133.632a32 32 0 1 1-41.92 48.32L704 3.488v119.552c0 20.384 15.712 36.96 35.072 36.96h157.632a32 32 0 0 1 32 32c0 1.792-0.736 3.36-1.024 5.088 0 0.576 0.32 1.056 0.32 1.664V256zM160 763.072C160 783.424 175.712 800 195.04 800h633.888C848.288 800 864 783.424 864 763.072V736H160v27.072z m382.048-292.864l-7.808-1.344h-4.064c-8.832 0-20.128 8.16-33.952 24.448l-23.072 22.752v-1.344l-0.672-111.008c-5.44-14.016-13.12-21.024-23.072-21.024h-6.784c-9.952 0-17.664 7.008-23.072 21.024V584.928c0 9.728 6.784 17.408 20.352 23.072h9.504c7.456 0 19.808-9.728 36.992-29.184l45.824-45.152c47.072 47.296 71.392 70.944 72.992 70.944A21.664 21.664 0 0 0 615.008 608h6.784c9.728 0 17.44-6.784 23.072-20.352v-181.92c0-9.952-7.136-17.664-21.376-23.072h-8.48c-6.784 0-13.472 4.416-20.032 13.248-2.496 3.84-3.744 10.752-3.744 20.704v99.456c-30.304-30.592-46.688-45.856-49.184-45.856z m-187.808-15.296v-4.768c0-26.688-14.368-47.392-43.104-62.112-7.936-3.616-21.376-5.408-40.384-5.408h-55.68c-9.952 0-17.664 7.008-23.072 21.024V583.552c0 7.936 6.784 15.616 20.352 23.072L217.792 608h68.896c27.392 0 48.416-14.592 63.136-43.776 2.944-9.28 4.416-17.888 4.416-25.792 0-14.72-4.864-28.864-14.592-42.432v-1.344c9.728-11.552 14.592-24.8 14.592-39.744zM864 224h-124.928C684.448 224 640 178.72 640 123.072V-32H195.04C175.712-32 160-15.424 160 4.928V256h704v-32z m5.344 300.512c0-23.52-12-44.576-35.968-63.136-14.72-8.352-27.936-12.544-39.712-12.544h-29.856v-27.84c0-17.888-3.04-28.288-9.152-31.232 0-2.272-4.864-4.64-14.592-7.136h-6.784c-9.952 0-17.664 7.008-23.072 21.024V584.928c0 9.952 7.008 17.664 21.056 23.072h62.464c23.296 0 44.224-11.872 62.784-35.648 8.608-14.688 12.896-28.064 12.896-40.032v-7.808z"  horiz-adv-x="1024" />

    
    <glyph glyph-name="GIF" unicode="&#60445;" d="M928 256h32V736h-32v27.072C928 818.72 883.552 864 828.928 864H195.04C140.448 864 96 818.72 96 763.072V736H64v-480h32v-251.072C96-50.72 140.448-96 195.04-96h480.032a31.872 31.872 0 0 1 20.96 7.84l153.856 133.632a32 32 0 1 1-41.92 48.32L704 3.488v119.552c0 20.384 15.712 36.96 35.072 36.96h157.632a32 32 0 0 1 32 32c0 1.792-0.736 3.36-1.024 5.088 0 0.576 0.32 1.056 0.32 1.664V256z m-64-32h-124.928C684.448 224 640 178.72 640 123.072V-32H195.04C175.712-32 160-15.424 160 4.928V256h704v-32zM319.872 429.28c7.968-2.88 15.072-4.32 21.344-4.32h5.792c11.808 0 22.784 3.744 32.928 11.2v14.848H334.72c-10.368 0-18.56 7.584-24.608 22.784v9.024c0 7.488 4.704 14.592 14.112 21.344 4.096 2.912 11.456 4.352 22.08 4.352h54.976c19.04 0 30.88-6.88 35.456-20.608l0.736-5.056v-63.296c0-13.024-16.032-27.488-48.128-43.424-16.416-5.536-29.44-8.32-39.072-8.32h-11.936c-31.104 0-60.064 14.336-86.816 43.04-18.368 24.128-27.52 47.872-27.52 71.264v11.584c0 31.104 14.336 60.032 43.04 86.816C291.168 598.848 314.912 608 338.304 608h11.936c19.52 0 40.992-7.488 64.384-22.432 15.2-10.624 22.784-20.992 22.784-31.104v-5.056c0-4.576-2.88-10.496-8.672-17.728-7.232-5.056-13.76-7.616-19.552-7.616-8.448 0-17.728 4.96-27.84 14.848-11.104 7.968-22.56 11.936-34.368 11.936h-5.792c-23.872 0-42.432-13.024-55.712-39.072a60.8 60.8 0 0 1-4.352-20.992v-5.792c0.032-23.872 12.928-42.432 38.752-55.712z m185.632-39.072V583.392c0 10.624 7.488 18.816 22.432 24.608h9.408c10.624 0 18.816-7.488 24.608-22.432v-193.184c0-10.624-7.488-18.816-22.432-24.608h-9.408c-10.624 0-18.848 7.488-24.608 22.432z m188.448 115.424v-10.496h73.44c10.624 0 18.944-7.616 24.96-22.784v-9.056c0-7.488-4.832-14.592-14.464-21.344-3.872-2.88-11.104-4.352-21.696-4.352h-62.208v-32.192c0-19.296-5.664-30.88-16.992-34.72 0-1.216-2.784-2.176-8.32-2.912h-7.232c-10.624 0-18.816 7.488-24.608 22.432V583.392c0 10.624 7.488 18.816 22.432 24.608h122.272c10.624 0 18.944-7.488 24.96-22.432v-9.408c0-10.624-7.584-18.816-22.784-24.608h-90.432l0.672-45.92zM864 736H160v27.072C160 783.424 175.712 800 195.04 800h633.888C848.288 800 864 783.424 864 763.072V736z"  horiz-adv-x="1024" />

    
    <glyph glyph-name="JPG" unicode="&#60446;" d="M490.432 548.448l-15.456 0.736h-19.232v-58.048h32.416c10.816 0 19.104 7.552 24.896 22.624v9.408c0 10.816-7.552 19.232-22.624 25.28zM928 256h32V736h-32v27.072C928 818.72 883.552 864 828.928 864H195.04C140.448 864 96 818.72 96 763.072V736H64v-480h32v-251.072C96-50.72 140.448-96 195.04-96h480.032a31.872 31.872 0 0 1 20.96 7.84l153.856 133.632a32 32 0 1 1-41.92 48.32L704 3.488v119.552c0 20.384 15.712 36.96 35.072 36.96h157.632a32 32 0 0 1 32 32c0 1.792-0.736 3.36-1.024 5.088 0 0.576 0.32 1.056 0.32 1.664V256zM160 763.072C160 783.424 175.712 800 195.04 800h633.888C848.288 800 864 783.424 864 763.072V736H160v27.072zM709.472 421.76c8.288-3.008 15.712-4.512 22.24-4.512h6.016c12.32 0 23.744 3.904 34.304 11.68v15.456h-47.136c-10.816 0-19.36 7.904-25.632 23.744v9.408c0 7.776 4.896 15.2 14.688 22.24 4.288 3.008 11.936 4.544 23.008 4.544h57.312c19.872 0 32.16-7.168 36.96-21.504l0.768-5.248v-65.984c0-13.568-16.704-28.64-50.144-45.248-17.088-5.792-30.656-8.672-40.704-8.672h-12.448c-32.416 0-62.592 14.944-90.496 44.864-19.104 25.152-28.64 49.888-28.64 74.272v12.064c0 32.416 14.944 62.592 44.864 90.464C679.552 598.464 704.32 608 728.704 608h12.448c20.352 0 42.72-7.776 67.104-23.36 15.84-11.072 23.744-21.888 23.744-32.448v-5.28c0-4.768-3.008-10.944-9.056-18.464-7.552-5.28-14.336-7.936-20.352-7.936-8.8 0-18.464 5.152-29.024 15.456-11.552 8.288-23.488 12.448-35.808 12.448h-6.016c-24.896 0-44.224-13.568-58.048-40.704a63.04 63.04 0 0 1-4.512-21.856v-6.016c-0.064-24.896 13.408-44.256 40.288-58.08z m-136.48 102.176v-8.672c0-26.144-13.312-49.504-39.968-70.112-16.352-9.312-31.04-13.952-44.096-13.952h-33.184v-30.912c0-19.872-3.392-31.424-10.176-34.688 0-2.496-5.408-5.152-16.224-7.904h-7.552c-11.072 0-19.616 7.776-25.632 23.36V582.368c0 11.072 7.776 19.616 23.36 25.632h69.376c25.888 0 49.12-13.184 69.728-39.584 9.6-16.352 14.368-31.168 14.368-44.48zM324.32 584.64v-128.192c0-32.16-15.968-59.936-47.872-83.328-17.856-10.304-34.688-15.456-50.528-15.456h-8.288c-11.072 0-19.616 7.776-25.632 23.36v9.792c0 9.312 6.4 17.344 19.232 24.128l27.904 5.28c17.088 10.048 25.632 22.368 25.632 36.96v111.968c0 19.84 5.92 31.776 17.728 35.808 0 1.248 2.88 2.272 8.672 3.008h7.552c11.04 0.032 19.584-7.744 25.6-23.328zM640 123.072V-32H195.04C175.712-32 160-15.424 160 4.928V256h704v-32h-124.928C684.448 224 640 178.72 640 123.072z"  horiz-adv-x="1024" />

    
    <glyph glyph-name="PNG" unicode="&#60447;" d="M295.456 524.576v8.352c0 9.568-6.688 17.024-20.032 22.368l-13.664 0.672h-17.056v-51.392h28.704c9.568 0 16.928 6.656 22.048 20zM928 256h32V736h-32v27.072C928 818.72 883.552 864 828.928 864H195.04C140.448 864 96 818.72 96 763.072V736H64v-480h32v-251.072C96-50.72 140.448-96 195.04-96h480.032a31.872 31.872 0 0 1 20.96 7.84l153.856 133.632a32 32 0 1 1-41.92 48.32L704 3.488v119.552c0 20.384 15.712 36.96 35.072 36.96h157.632a32 32 0 0 1 32 32c0 1.792-0.736 3.36-1.024 5.088 0 0.576 0.32 1.056 0.32 1.664V256z m-64-32h-124.928C684.448 224 640 178.72 640 123.072V-32H195.04C175.712-32 160-15.424 160 4.928V256h704v-32zM192 407.136V585.312c0 9.792 6.912 17.344 20.672 22.688h61.408c22.912 0 43.488-11.68 61.728-35.04 8.448-14.464 12.672-27.584 12.672-39.36v-7.68c0-23.136-11.776-43.808-35.36-62.048-14.464-8.224-27.488-12.352-39.04-12.352h-29.376v-27.36c0-17.568-3.008-27.808-8.992-30.688 0-2.24-4.768-4.576-14.336-7.008h-6.688c-9.792-0.032-17.344 6.88-22.688 20.672z m188.864 0V585.312c0 9.568 6.688 17.12 20.032 22.688h9.344c7.328 0 19.008-9.12 35.04-27.36l104.448-103.776v97.76c0 17.568 6.24 28.48 18.688 32.704L573.056 608h6.656c9.568 0 17.12-6.912 22.688-20.672v-178.176c0-9.568-6.784-17.12-20.352-22.688h-8.992c-7.552 0-19.232 9.12-35.04 27.36l-104.448 103.776v-94.752c0-16-3.232-26.144-9.664-30.368-5.568-4-10.112-6.016-13.664-6.016h-6.656c-9.824-0.032-17.376 6.88-22.72 20.672z m342.688 36.032c7.328-2.656 13.888-4 19.68-4h5.344c10.912 0 21.024 3.456 30.368 10.336v13.664h-41.696c-9.568 0-17.12 7.008-22.688 21.024v8.352c0 6.912 4.32 13.44 13.024 19.68 3.776 2.656 10.56 4 20.352 4h50.72c17.568 0 28.48-6.336 32.704-19.008l0.64-4.672v-58.4c0-12-14.784-25.344-44.384-40.032-15.136-5.12-27.136-7.68-36.032-7.68h-11.008c-28.704 0-55.392 13.248-80.096 39.712-16.896 22.24-25.344 44.16-25.344 65.728v10.688c0 28.704 13.248 55.392 39.712 80.096 22.24 16.896 44.16 25.344 65.728 25.344h11.008c18.016 0 37.824-6.912 59.392-20.672 14.016-9.792 21.024-19.36 21.024-28.704v-4.672c0-4.224-2.656-9.664-8-16.352-6.656-4.672-12.672-7.008-18.016-7.008-7.776 0-16.352 4.576-25.696 13.664-10.24 7.328-20.8 11.008-31.712 11.008h-5.344c-22.016 0-39.168-12-51.392-36.032a55.936 55.936 0 0 1-4-19.36v-5.344c0-22.016 11.904-39.136 35.712-51.36zM864 736H160v27.072C160 783.424 175.712 800 195.04 800h633.888C848.288 800 864 783.424 864 763.072V736z"  horiz-adv-x="1024" />

    
    <glyph glyph-name="weizhigeshi" unicode="&#60448;" d="M842.4 240.736C827.808 339.424 741.664 416 639.52 416a203.648 203.648 0 0 1-163.424-81.152 197.024 197.024 0 0 1-204.768-196.64c0-108.512 88.288-196.832 197.344-196.832h320.512c94.208 0 170.848 68.864 170.848 153.504-0.032 67.52-48.16 125.664-117.632 145.856z m-53.248-235.392H468.16a132.992 132.992 0 0 0-132.832 132.832 132.96 132.96 0 0 0 152 131.456l20.832-3.04 11.008 17.952A140.32 140.32 0 0 0 639.52 352c76.192 0 139.456-61.952 141.024-138.048l0.576-27.04 26.752-3.968C858.944 175.36 896 138.304 896 94.848c0-49.344-47.936-89.504-106.848-89.504zM253.856-32H195.04C175.712-32 160-15.424 160 4.928V763.072C160 783.424 175.712 800 195.04 800h633.888C848.288 800 864 783.424 864 763.072v-410.944a32 32 0 1 1 64 0V763.072C928 818.72 883.552 864 828.928 864H195.04C140.448 864 96 818.72 96 763.072v-758.144C96-50.72 140.448-96 195.04-96h58.784a32 32 0 0 1 0.032 64zM672 672a32 32 0 0 1-32 32H288a32 32 0 0 1 0-64h352a32 32 0 0 1 32 32zM288 544a32 32 0 0 1 0-64h192a32 32 0 0 1 0 64H288z"  horiz-adv-x="1024" />

    
    <glyph glyph-name="gengduo" unicode="&#60449;" d="M224 384m-80 0a80 80 0 1 1 160 0 80 80 0 1 1-160 0ZM512 384m-80 0a80 80 0 1 1 160 0 80 80 0 1 1-160 0ZM800 384m-80 0a80 80 0 1 1 160 0 80 80 0 1 1-160 0Z"  horiz-adv-x="1024" />

    
    <glyph glyph-name="yunduanxiazai" unicode="&#60450;" d="M808.192 649.472a320.16 320.16 0 0 1-592.352 0A238.592 238.592 0 0 1 32 416.064c0-132.352 107.648-240 240-240h91.488a32 32 0 1 1 0 64H272a176.192 176.192 0 0 0-176 176 175.04 175.04 0 0 0 148.48 173.888l19.04 2.976 6.24 18.24C305.248 714.592 402.592 784.064 512 784.064a256 256 0 0 0 242.208-172.896l6.272-18.24 19.04-2.976A175.04 175.04 0 0 0 928 416.064c0-97.024-78.976-176-176-176h-97.28a32 32 0 1 1 0-64h97.28c132.352 0 240 107.648 240 240a238.592 238.592 0 0 1-183.808 233.408zM649.792 106.112L544 19.52V448.064a32 32 0 0 1-64 0V19.52l-106.752 87.424a31.968 31.968 0 1 1-40.544-49.504l159.04-130.24a32 32 0 0 1 40.576 0l158.048 129.44a32 32 0 1 1-40.576 49.472z"  horiz-adv-x="1024" />

    
    <glyph glyph-name="yunduanshangchuan" unicode="&#60451;" d="M808.192 633.408a320.16 320.16 0 0 1-592.352 0A238.592 238.592 0 0 1 32 400C32 267.648 139.648 160 272 160h91.488a32 32 0 1 1 0 64H272A176.192 176.192 0 0 0 96 400a175.04 175.04 0 0 0 148.48 173.888l19.04 2.976 6.24 18.24C305.248 698.528 402.592 768 512 768a256 256 0 0 0 242.208-172.896l6.272-18.24 19.04-2.976A175.04 175.04 0 0 0 928 400c0-97.024-78.976-176-176-176h-97.28a32 32 0 1 1 0-64h97.28c132.352 0 240 107.648 240 240a238.592 238.592 0 0 1-183.808 233.408zM649.792 325.952a32 32 0 1 1 40.544 49.536l-158.048 129.408a32 32 0 0 1-40.576 0l-159.04-130.24a32.032 32.032 0 0 1 20.256-56.768 31.744 31.744 0 0 1 20.256 7.264L480 412.544V-16a32 32 0 0 1 64 0V412.544l105.792-86.592z"  horiz-adv-x="1024" />

    
    <glyph glyph-name="dian" unicode="&#60452;" d="M512 272a112 112 0 1 1 0 224 112 112 0 0 1 0-224z"  horiz-adv-x="1024" />

    
    <glyph glyph-name="mian" unicode="&#60453;" d="M896 94.368V673.632c36.48 7.424 64 39.744 64 78.368C960 796.096 924.128 832 880 832c-38.656 0-70.944-27.52-78.368-64H222.368A80.096 80.096 0 0 1 144 832 80.096 80.096 0 0 1 64 752c0-38.624 27.52-70.944 64-78.368V94.4c-36.48-7.424-64-39.744-64-78.368A80.096 80.096 0 0 1 144-64c38.624 0 70.944 27.52 78.368 64H801.6c7.424-36.48 39.744-64 78.368-64A80 80 0 1 1 896 94.368z m-704-14.784V688.416c5.888 4.448 11.136 9.696 15.584 15.584h608.8c4.48-5.888 9.696-11.136 15.584-15.584v-608.8c-5.92-4.48-11.136-9.696-15.616-15.616H207.584A79.04 79.04 0 0 1 192 79.584z"  horiz-adv-x="1024" />

    
    <glyph glyph-name="xian" unicode="&#60454;" d="M848 464a80.064 80.064 0 0 1-73.216-48H217.216A80.096 80.096 0 0 1 144 464 80.096 80.096 0 0 1 64 384c0-44.128 35.904-80 80-80A80 80 0 0 1 217.216 352h557.536a80 80 0 0 1 73.216-48c44.128 0 80 35.872 80 80a80.032 80.032 0 0 1-79.968 80z"  horiz-adv-x="1024" />

    
    <glyph glyph-name="shebeizhuangtai" unicode="&#60455;" d="M864 832H160a96 96 0 0 1-96-96v-576a96 96 0 0 1 96-96h320v-64H256a32 32 0 0 1 0-64h512a32 32 0 0 1 0 64h-224v64h320a96 96 0 0 1 96 96V736a96 96 0 0 1-96 96zM160 768h704a32 32 0 0 0 32-32v-448H128V736a32 32 0 0 0 32 32z m736-608a32 32 0 0 0-32-32H160a32 32 0 0 0-32 32v64h768v-64z"  horiz-adv-x="1024" />

    
    <glyph glyph-name="fenzuguanli" unicode="&#60456;" d="M863.008 512C916.576 512 960 554.976 960 608V736c0 53.024-43.424 96-96.992 96H160.992C107.424 832 64 789.024 64 736v-128c0-53.024 43.424-96 96.992-96H320v-128a32 32 0 0 1 32-32h288v-96H160.992C107.424 256 64 213.024 64 160v-128c0-53.024 43.424-96 96.992-96h702.016C916.576-64 960-21.024 960 32v128c0 53.024-43.424 96-96.992 96H704v128a32 32 0 0 1-32 32h-288v96h479.008z m0-320c17.856 0 32.32-14.336 32.32-32v-128c0-17.664-14.464-32-32.32-32H160.992c-17.856 0-32.32 14.336-32.32 32v128c0 17.664 14.464 32 32.32 32h702.016zM128.672 608V736c0 17.664 14.464 32 32.32 32h702.016c17.856 0 32.32-14.336 32.32-32v-128c0-17.664-14.464-32-32.32-32H160.992c-17.856 0-32.32 14.336-32.32 32zM320 64h384a32 32 0 0 1 0 64H320a32 32 0 0 1 0-64zM736 672a32 32 0 0 1-32 32H320a32 32 0 0 1 0-64h384a32 32 0 0 1 32 32z"  horiz-adv-x="1024" />

    
    </font>
</defs>
</svg>
